ML
     
  Уважаемый Гость!
Вы можете поддержать проект и зарегистрироваться у наших партнеров - онлайн-стратегия MyLands. При регистрации в игре Вы получите код, который сможете активировать после регистрации на pirat.ca и получить 1000 дублонов.

Ваш код:
bc31d8aef74c92e19ad67e34a8fa63c3b9b812fb
 
     

Маленький гигант большого секса (Николай Досталь) [1992 г., комедия, DVDRip)[internal release]

Ответить на тему
 
Автор
Сообщение

Пост 04-Дек-2012 11:49

[Q] 

megamastor

-Маленький гигант большого секса-- Производство: студия КРУГ (Мосфильм)
Режиссер: Николай Досталь
Жанр: комедия
Год выпуска: 1992 г.
Продолжительность: 01:18:38
Российская премьера: Февраль 1993
В ролях: Геннадий Хазанов, Ирина Розанова, Ирина Сабанова, Владимир Кашпур, Петр Щербаков, Елена Зорина, Татьяна Васильева, Александр Берда, Ирэна Кокрятская-Описание: Герой фильма Марат живет в курортном городе на берегу Черного моря, работает фотографом на пляже и в редакции местной газеты. Но знаменит он совсем другим: ни одна женщина не может устоять перед его сексуальным напором. Для Марата любовные игры — дело серьезное, тогда как зрителя эти похождения заставляют смеяться до слез…-Сэмпл КиноПоиск
Качество видео: DVDRip
Формат видео: AVI
Видео кодек: XviD
Аудио кодек: AC3
Видео: 720x528, 2025 Кбит/сек, 25,000 кадров/сек
Аудио: 448 Кбит/сек, 6 каналов, 48,0 КГц
Cубтитры: отсутствуют
Формат : AVI
Формат/Информация : Audio Video Interleave
Размер файла : 1,36 Гбайт
Продолжительность : 1 ч. 18 м.
Общий поток : 2482 Кбит/сек
Программа кодирования : VirtualDubMod 1.5.10.3 | www.virtualdub-fr.org || (build 2550/release)
Библиотека кодирования : VirtualDubMod build 2550/release
Видео
Идентификатор : 0
Формат : MPEG-4 Visual
Профиль формата : Advanced [email protected]
Параметр BVOP формата : 2
Параметр QPel формата : Нет
Параметр GMC формата : Без точки перехода
Параметр матрицы формата : Default (H.263)
Идентификатор кодека : XVID
Идентификатор кодека/Подсказка : XviD
Продолжительность : 1 ч. 18 м.
Битрейт : 2025 Кбит/сек
Ширина : 720 пикселей
Высота : 528 пикселей
Соотношение сторон : 4:3
Частота кадров : 25,000 кадров/сек
Цветовое пространство : YUV
Субдискретизация насыщенности : 4:2:0
Битовая глубина : 8 бит
Тип развёртки : Прогрессивная
Метод сжатия : С потерями
Бит/(Пиксели*Кадры) : 0.213
Размер потока : 1,11 Гбайт (82%)
Библиотека кодирования : XviD 1.2.1 (UTC 2008-12-04)
Аудио
Идентификатор : 1
Формат : AC-3
Формат/Информация : Audio Coding 3
Расширение режима : CM (complete main)
Параметр Endianness формата : Big
Идентификатор кодека : 2000
Продолжительность : 1 ч. 18 м.
Вид битрейта : Постоянный
Битрейт : 448 Кбит/сек
Каналы : 6 каналов
Расположение каналов : Front: L C R, Side: L R, LFE
Частота : 48,0 КГц
Битовая глубина : 16 бит
Метод сжатия : С потерями
Размер потока : 252 Мбайт (18%)
Выравнивание : Разделение по промежуткам
Продолжительность промежутка : 40 мс. (1,00 видеокадр)
Время предзагрузки промежутка : 500 мс.
Download / Скачать

Хотите скачать бесплатно? Зарегистрируйтесь на сайте (ссылка на регистрацию). Pirat.ca - самый быстрый торрент трекер в рунете!

Как скачивать  ·   Что такое торрент  ·   Рейтинг и ограничения

Пост 04-Дек-2012 12:44 (спустя 55 минут)

Топик был перенесен из форума Наше кино (Трюм) в форум Российские фильмы

erchine
 
Показать сообщения:    
Ответить на тему

Текущее время: Сегодня 12:02

Часовой пояс: GMT + 4



Вы не можете начинать темы
Вы не можете отвечать на сообщения
Вы не можете редактировать свои сообщения
Вы не можете удалять свои сообщения
Вы не можете голосовать в опросах
Вы не можете прикреплять файлы к сообщениям
Вы не можете скачивать файлы

▼ Вниз