ML
     
  Уважаемый Гость!
Вы можете поддержать проект и зарегистрироваться у наших партнеров - онлайн-стратегия MyLands. При регистрации в игре Вы получите код, который сможете активировать после регистрации на pirat.ca и получить 1000 дублонов.

Ваш код:
69f316be79867e9bf99caee9682d20bb11964507
 
     

Джунгли (Александр Войтинский) [2012 г., Мелодрама, комедия, приключения, DVDRip] [Лицензия]

Страницы :  1, 2, 3, 4, 5, 6, 7, 8, 9  След.

Ответить на тему
 
Автор
Сообщение

Пост 08-Дек-2012 00:59

[Q] 

AGKRus36

-Джунгли-«Любовь - это война!»- Производство: Россия / Кинокомпания CTB
Режиссер: Александр Войтинский
Жанр: Мелодрама, комедия, приключения
Год выпуска: 2012 г.
Продолжительность: 01:20:02
Российская премьера: 29 ноября 2012, «Наше Кино»
Дата выхода DVD: 18 декабря 2012, «Lizard Cinema Trade»
Дата выхода Blu-Ray: 15 января 2013, «Lizard Cinema Trade»-В ролях: Сергей Светлаков, Вера Брежнева, Александр Макогон, Александр Половцев, Марина Дюжева-Описание: У Сергея и Марины в семейной жизни наступил кризис. Во время одной из ссор, они решают поехать в экзотическое путешествие. Всю дорогу между супругами не утихают ссоры, которые в конце концов приводят к тому, что они оказываются на необитаемом острове, затерянном в океане. Вместо того чтобы вместе бороться за выживание, наши герои продолжают выяснять отношения, постепенно переходя к настоящим боевым действиям. В довершение несчастий оказывается, что остров населен племенем воинствующих туземцев.-Сэмпл КиноПоиск
Качество видео: DVDRip
Формат видео: AVI
Видео кодек: XviD
Аудио кодек: AC3
Видео: 720x304, 1987 kbps, 25.000 fps
Аудио: AC3, 448b/s, (6ch), 48.0 KHz [Лицензия]
Cубтитры: отсутствуют
F:\Фильмы\Джунгли\Dzhungli.2012.O.DVDRip.avi
General
Complete name : F:\Фильмы\Джунгли\Dzhungli.2012.O.DVDRip.avi
Format : AVI
Format/Info : Audio Video Interleave
File size : 1.37 GiB
Duration : 1h 20mn
Overall bit rate : 2 442 Kbps
Writing application : VirtualDubMod 1.5.10.3 | www.virtualdub-fr.org || (build 2550/release)
Writing library : VirtualDubMod build 2550/release
Video #0
ID : 0
Format : MPEG-4 Visual
Format profile : Advanced [email protected]
Format settings, BVOP : 2
Format settings, QPel : No
Format settings, GMC : No warppoints
Format settings, Matrix : Default (MPEG)
Codec ID : XVID
Codec ID/Hint : XviD
Duration : 1h 20mn
Bit rate : 1 984 Kbps
Width : 720 pixels
Height : 304 pixels
Display aspect ratio : 2.35:1
Frame rate : 25.000 fps
Color space : YUV
Chroma subsampling : 4:2:0
Bit depth : 8 bits
Scan type : Progressive
Compression mode : Lossy
Bits/(Pixel*Frame) : 0.363
Stream size : 1.11 GiB (81%)
Writing library : XviD 1.2.1 (UTC 2008-12-04)
Audio #1
ID : 1
Format : AC-3
Format/Info : Audio Coding 3
Mode extension : CM (complete main)
Format settings, Endianness : Big
Codec ID : 2000
Duration : 1h 20mn
Bit rate mode : Constant
Bit rate : 448 Kbps
Channel(s) : 6 channels
Channel positions : Front: L C R, Side: L R, LFE
Sampling rate : 48.0 KHz
Bit depth : 16 bits
Compression mode : Lossy
Stream size : 256 MiB (18%)
Alignment : Split accross interleaves
Interleave, duration : 40 ms (1.00 video frame)
Interleave, preload duration : 500 ms
Download / Скачать

Хотите скачать бесплатно? Зарегистрируйтесь на сайте (ссылка на регистрацию). Pirat.ca - самый быстрый торрент трекер в рунете!

Как скачивать  ·   Что такое торрент  ·   Рейтинг и ограничения

kon-stantin

Лоцман

Пост 08-Дек-2012 01:32 (спустя 32 минуты)

[Q] 

спасибо за оперативность
[Профиль]  [ЛС] 

Пост 08-Дек-2012 01:50 (спустя 17 минут)

Топик был перенесен из форума Наше кино (Трюм) в форум Новинки (HD|DVD|BD|TV|SAT|PDTV| - Rips)

erchine
 

slavix

Корсар

Пост 08-Дек-2012 01:56 (спустя 23 минуты)

[Q] 

что уже лицензия, круто
[Профиль]  [ЛС] 

krendel1973

Флибустьер

Пост 08-Дек-2012 02:05 (спустя 8 минут)

[Q] 

[Профиль]  [ЛС] 

kmv01

Гроза морей

Пост 08-Дек-2012 06:58 (спустя 4 часа)

[Q] 

Как фильм?
[Профиль]  [ЛС] 

got70

Легенда

752

Пост 08-Дек-2012 07:38 (спустя 39 минут)

[Q] 


_________________
Добро непременно победит зло!Непременно...Затем поставит на колени,и зверски УБЬЁТ!
[Профиль]  [ЛС] 

Шкипер_Саныч

Морской Волк

Пост 08-Дек-2012 08:47 (спустя 1 час 9 минут)

[Q] 

[Профиль]  [ЛС] 

badi74

Корсар

Пост 08-Дек-2012 08:50 (спустя 3 минуты)

[Q] 

[Профиль]  [ЛС] 

anonymoys

Гроза морей

901

Пост 08-Дек-2012 08:55 (спустя 4 минуты)

[Q] 

[Профиль]  [ЛС] 

pp2141

Гроза морей

Пост 08-Дек-2012 11:02 (спустя 2 часа 7 минут)

[Q] 

[Профиль]  [ЛС] 

SyXapuK

Штурман

Пост 08-Дек-2012 11:25 (спустя 23 минуты)

[Q] 

спс.заценим
[Профиль]  [ЛС] 

dimonpa

Гроза морей

Пост 08-Дек-2012 11:48 (спустя 23 минуты)

[Q] 

[Профиль]  [ЛС] 

pp2141

Гроза морей

Пост 08-Дек-2012 12:34 (спустя 45 минут)

[Q] 

Спасибо понравилось
[Профиль]  [ЛС] 

vadim0525

Корсар

283

Пост 08-Дек-2012 12:48 (спустя 14 минут)

[Q] 


_________________
[Профиль]  [ЛС] 

alexsoid

Шкипер

Пост 08-Дек-2012 13:08 (спустя 19 минут)

[Q] 

bf
[Профиль]  [ЛС] 

polozm

Легенда

Пост 08-Дек-2012 13:12 (спустя 3 минуты)

[Q] 

Спасибо.сценарий глуповат а так смотреть можно bi

_________________
mac mini -2.0 GHz Intel Core i7/ 8 GB DDR3. /Intel HD 3000(512mb)OS X 10.9 Mavericks
[Профиль]  [ЛС] 

veter13

Корсар

Пост 08-Дек-2012 13:20 (спустя 8 минут)

[Q] 

[Профиль]  [ЛС] 

maglot129

Корсар

Пост 08-Дек-2012 14:49 (спустя 1 час 28 минут)

[Q] 

БОЧКА!!!
[Профиль]  [ЛС] 

peugeot

Морской Волк

Пост 08-Дек-2012 14:54 (спустя 5 минут)

[Q] 

беру
[Профиль]  [ЛС] 

ss80

Флибустьер

36

Пост 08-Дек-2012 15:02 (спустя 7 минут)

[Q] 

[Профиль]  [ЛС] 

Sticcer

Лоцман

Пост 08-Дек-2012 15:04 (спустя 2 минуты)

[Q] 

Ну это уж намного лучше чем "Соловей разбойник", посмеялся немного, фильм легкий,, для отдыха, лучше смотреть со второй половинкой. fh
[Профиль]  [ЛС] 

Zorky

Морской Волк

Пост 08-Дек-2012 15:47 (спустя 42 минуты)

[Q] 

[Профиль]  [ЛС] 

sd535

Флибустьер

1796

Пост 08-Дек-2012 16:03 (спустя 16 минут)

[Q] 

[Профиль]  [ЛС] 

las0t

Лоцман

Пост 08-Дек-2012 16:16 (спустя 13 минут)

[Q] 

Так быстро только на этом сайте... Эге-ге-ге-ййййййй
[Профиль]  [ЛС] 

viji

Корсар

Пост 08-Дек-2012 18:48 (спустя 2 часа 31 минута)

[Q] 

Фильм великолепен. Легкая и веселая комедия для всех ) Такой фильм не грех и в кинотеатре посмотреть, не пожалеешь потом. И желательно смотреть семейным парам )
[Профиль]  [ЛС] 

romansl

Шкипер

Пост 08-Дек-2012 18:54 (спустя 6 минут)

[Q] 

Быстро работаете, господа пираты!
[Профиль]  [ЛС] 

WWsimf

Флибустьер

Пост 08-Дек-2012 19:01 (спустя 7 минут)

[Q] 

[Профиль]  [ЛС] 

choki

Шкипер

Пост 08-Дек-2012 20:43 (спустя 1 час 42 минуты)

[Q] 

[Профиль]  [ЛС] 

Муравей

Корсар

Пост 08-Дек-2012 21:09 (спустя 25 минут)

[Q] 

да уж неожиданно
[Профиль]  [ЛС] 
Показать сообщения:    
Ответить на тему

Текущее время: Сегодня 14:30

Часовой пояс: GMT + 4



Вы не можете начинать темы
Вы не можете отвечать на сообщения
Вы не можете редактировать свои сообщения
Вы не можете удалять свои сообщения
Вы не можете голосовать в опросах
Вы не можете прикреплять файлы к сообщениям
Вы не можете скачивать файлы

▼ Вниз