ML
     
  Уважаемый Гость!
Вы можете поддержать проект и зарегистрироваться у наших партнеров - онлайн-стратегия MyLands. При регистрации в игре Вы получите код, который сможете активировать после регистрации на pirat.ca и получить 1000 дублонов.

Ваш код:
1a5b0a965618b2c406d4279ec9924ee6282c60cf
 
     

Соловей-Разбойник (Егор Баранов) [2012 г., боевик, комедия, приключения, BDRip-AVC] [Лицензия]

Ответить на тему
 
Автор
Сообщение

Пост 08-Дек-2012 11:04

[Q] 

AGKRus36

-Соловей-Разбойник-«Здесь граблю только я!»- Производство: Россия / Studio Ortodoks
Режиссер: Егор Баранов
Жанр: боевик, комедия, приключения
Год выпуска: 2012 г.
Продолжительность: 01:31:39
Российская премьера: 22 ноября 2012
Дата выхода DVD: 18 декабря 2012, «Парадиз Медиа»
Дата выхода Blu-Ray: 18 декабря 2012, «Парадиз Медиа»-В ролях: Иван Охлобыстин, Евгений Стычкин, Оксана Фандера, Игорь Жижикин, Сергей Бадюк, Александр Стриженов, Павел Прилучный, Мария Голубкина, Александр Сухинин, Михаил Горевой-Описание: История о дерзком романтике Соловьёве Севастьяне Григорьевиче, cтупившем по зову крови на лихую стезю русского разбоя. И пока спецслужбы во главе с секретным агентом Н7 пытаются ликвидировать банду Соловья-Разбойника, он, со свойственным ему драйвом и озорством, восстанавливает в родном краю справедливость. Но рано или поздно любой «сказке» приходит конец….-Сэмпл КиноПоиск
Качество видео: BDRip-AVC
Формат видео: MKV
Видео кодек: H.264
Аудио кодек: AC3
Видео: MPEG-4 AVC, 2750 kbps, 1024x436, 24.000 fps
Аудио: AC3, 6 ch, 448 kbps, 48.0 KHz (Лицензия)
Cубтитры: отсутствуют
F:\Фильмы\Соловей-Разбойник\Solovei.Razbotnik.2012.О.x264.BDRip.(AVC).mkv
General
Unique ID : 188211961152888223708845365504405365212 (0x8D984E20C69CBACE90DDF172D96361DC)
Complete name : F:\Фильмы\Соловей-Разбойник\Solovei.Razbotnik.2012.О.x264.BDRip.(AVC).mkv
Format : Matroska
Format version : Version 2
File size : 2.05 GiB
Duration : 1h 31mn
Overall bit rate : 3 198 Kbps
Movie name : Соловей-Разбойник (2012) - release by ==nnlabetik==
Encoded date : UTC 2012-12-08 03:16:48
Writing application : mkvmerge v5.8.0 ('No Sleep / Pillow') built on Sep 2 2012 15:37:04
Writing library : libebml v1.2.3 + libmatroska v1.3.0
Video #1
ID : 1
Format : AVC
Format/Info : Advanced Video Codec
Format profile : [email protected]
Format settings, CABAC : Yes
Format settings, ReFrames : 9 frames
Codec ID : V_MPEG4/ISO/AVC
Duration : 1h 31mn
Bit rate : 2 750 Kbps
Width : 1 024 pixels
Height : 436 pixels
Display aspect ratio : 2.35:1
Frame rate mode : Constant
Frame rate : 24.000 fps
Color space : YUV
Chroma subsampling : 4:2:0
Bit depth : 8 bits
Scan type : Progressive
Bits/(Pixel*Frame) : 0.257
Stream size : 1.72 GiB (84%)
Writing library : x264 core 125 r2200 999b753
Encoding settings : cabac=1 / ref=9 / deblock=1:-2:-1 / analyse=0x3:0x113 / me=umh / subme=10 / psy=1 / psy_rd=1.00:0.00 / mixed_ref=1 / me_range=32 / chroma_me=1 / trellis=2 / 8x8dct=1 / cqm=0 / deadzone=21,11 / fast_pskip=1 / chroma_qp_offset=-2 / threads=4 / lookahead_threads=1 / sliced_threads=0 / nr=0 / decimate=1 / interlaced=0 / bluray_compat=0 / constrained_intra=0 / bframes=8 / b_pyramid=2 / b_adapt=2 / b_bias=0 / direct=3 / weightb=1 / open_gop=0 / weightp=2 / keyint=230 / keyint_min=23 / scenecut=40 / intra_refresh=0 / rc=2pass / mbtree=0 / bitrate=2750 / ratetol=1.0 / qcomp=0.60 / qpmin=0 / qpmax=69 / qpstep=4 / cplxblur=20.0 / qblur=0.5 / ip_ratio=1.40 / pb_ratio=1.30 / aq=1:1.00
Language : Russian
Default : Yes
Forced : No
Audio #2
ID : 2
Format : AC-3
Format/Info : Audio Coding 3
Mode extension : CM (complete main)
Format settings, Endianness : Big
Codec ID : A_AC3
Duration : 1h 31mn
Bit rate mode : Constant
Bit rate : 448 Kbps
Channel(s) : 6 channels
Channel positions : Front: L C R, Side: L R, LFE
Sampling rate : 48.0 KHz
Bit depth : 16 bits
Compression mode : Lossy
Stream size : 294 MiB (14%)
Language : Russian
Default : Yes
Forced : No
Download / Скачать

Хотите скачать бесплатно? Зарегистрируйтесь на сайте (ссылка на регистрацию). Pirat.ca - самый быстрый торрент трекер в рунете!

Как скачивать  ·   Что такое торрент  ·   Рейтинг и ограничения



Последний раз редактировалось: AGKRus36 (2012-12-08 11:12), всего редактировалось 3 раз(а)

rikon

Лоцман

Пост 08-Дек-2012 11:07 (спустя 3 минуты)

[Q] 

???
[Профиль]  [ЛС] 

ara1205

69736

Пост 08-Дек-2012 11:48 (спустя 40 минут)

[Q] 

# сомнительно в связи с недокропом в верхней части картинки видео
[Профиль]  [ЛС] 

Пост 08-Дек-2012 11:49 (спустя 19 секунд)

Топик был перенесен из форума Наше кино (Трюм) в форум Новинки (HD|DVD|BD|TV|SAT|PDTV| - Rips)

ara1205
 

alexsoid

Шкипер

Пост 08-Дек-2012 13:05 (спустя 1 час 16 минут)

[Q] 

[Профиль]  [ЛС] 

AGKRus36 ®

37905

Пост 08-Дек-2012 14:56 (спустя 1 час 51 минута)

[Q] 

279431
Не смотрите на # сомнительно в связи с недокропом в верхней части картинки видео
Это всё туфта

_________________
Мои раздачи
[Профиль]  [ЛС] 

jesus-w

Корсар

Пост 08-Дек-2012 15:07 (спустя 10 минут)

[Q] 

[Профиль]  [ЛС] 

Datchanin

Корсар

36

Пост 09-Дек-2012 12:35 (спустя 21 час)

[Q] 



_________________
[Профиль]  [ЛС] 

DoktorRUS

Шкипер

Пост 09-Дек-2012 12:44 (спустя 8 минут)

[Q] 

господа..я откровенно говоря не знаю для кого подобное снимают..но этот фильм нельзя даже трешем назвать! -10 по 10 бальной шкале. Я честно очень старался его посмотреть (племянники попросили скачать)... нет же слов!Меня хватило на 10 минут...их на 15! Не тратте время.
[Профиль]  [ЛС] 

AlexVl

Пост 09-Дек-2012 21:23 (спустя 8 часов)

[Q] 

придурковатый фильм, рядом с даун-хаусом не стоял.
[Профиль]  [ЛС] 

CKBO21

Лоцман

Пост 10-Дек-2012 00:30 (спустя 3 часа)

[Q] 

ФИЛЬМ просто убожество((( кое как посмотрел..не советую
[Профиль]  [ЛС] 

shelby290

Флибустьер

Пост 11-Дек-2012 17:39 (спустя 1 день 17 часов)

[Q] 

[Профиль]  [ЛС] 

des

Морской Волк

Пост 11-Дек-2012 21:13 (спустя 3 часа)

[Q] 

[Профиль]  [ЛС] 

mizu

Шкипер

Пост 12-Дек-2012 08:27 (спустя 11 часов)

[Q] 

[Профиль]  [ЛС] 

Nostromizer

Морской Волк

Пост 12-Дек-2012 16:10 (спустя 7 часов)

[Q] 

Начало хорошее, терпимо вцелом, но концовка убивает весь фильм.

_________________
Mark It Zero!
[Профиль]  [ЛС] 

Snek

Штурман

Пост 12-Дек-2012 20:33 (спустя 4 часа)

[Q] 

Идея хорошая, автор недоучка или недоумок... В общем- на один раз и на любителя!
Релизеру
[Профиль]  [ЛС] 

Mixrool

Корсар

Пост 22-Дек-2012 16:51 (спустя 9 дней)

[Q] 

Фильм Шляпа!
тут даже нечего добавить.
[Профиль]  [ЛС] 

naumov1312

Штурман

Пост 24-Дек-2012 22:11 (спустя 2 дня 5 часов)

[Q] 

[Профиль]  [ЛС] 

TemychKlin

Морской Волк

Пост 25-Дек-2012 22:01 (спустя 23 часа)

[Q] 

концовка убивает весь фильм, но в принципе не плохо
[Профиль]  [ЛС] 

Stalker_29

Корсар

Пост 25-Дек-2012 23:01 (спустя 1 час)

[Q] 

[Профиль]  [ЛС] 

JAGUAR47

Штурман

Пост 26-Дек-2012 01:33 (спустя 2 часа 31 минута)

[Q] 

[Профиль]  [ЛС] 

Goga666

Шкипер

324

Пост 27-Дек-2012 19:17 (спустя 1 день 17 часов)

[Q] 

[Профиль]  [ЛС] 

lexusys

Штурман

55

Пост 27-Дек-2012 19:45 (спустя 28 минут)

[Q] 

[Профиль]  [ЛС] 

masssstadont

Лоцман

Пост 28-Дек-2012 00:42 (спустя 4 часа)

[Q] 

такие "фильмы" нужно только на перемотке смотреть для сохранения психического здоровья.
[Профиль]  [ЛС] 
Показать сообщения:    
Ответить на тему

Текущее время: Сегодня 23:52

Часовой пояс: GMT + 4



Вы не можете начинать темы
Вы не можете отвечать на сообщения
Вы не можете редактировать свои сообщения
Вы не можете удалять свои сообщения
Вы не можете голосовать в опросах
Вы не можете прикреплять файлы к сообщениям
Вы не можете скачивать файлы

▼ Вниз