ML
     
  Уважаемый Гость!
Вы можете поддержать проект и зарегистрироваться у наших партнеров - онлайн-стратегия MyLands. При регистрации в игре Вы получите код, который сможете активировать после регистрации на pirat.ca и получить 1000 дублонов.

Ваш код:
8b29d0f8cd61fe457e59e7df0aa1fab41a2b88b9
 
     

Соловей-Разбойник (Егор Баранов) [2012 г., боевик, комедия, криминал, HDRip]

Ответить на тему
 
Автор
Сообщение

Пост 08-Дек-2012 11:41

[Q] 

ara1205

-Соловей-Разбойник-- Производство: Россия
Режиссер: Егор Баранов
Жанр: боевик, комедия, криминал
Год выпуска: 2012 г.
Продолжительность: 01:31:39
Дата выхода DVD: 18 декабря 2012-В ролях: Иван Охлобыстин, Евгений Стычкин, Оксана Фандера, Игорь Жижикин, Сергей Бадюк, Александр Стриженов, Павел Прилучный, Мария Голубкина, Александр Сухинин, Михаил Горевой-Описание: История о дерзком романтике Соловьёве Севастьяне Григорьевиче, cтупившем по зову крови на лихую стезю русского разбоя. И пока спецслужбы во главе с секретным агентом Н7 пытаются ликвидировать банду Соловья-Разбойника, он, со свойственным ему драйвом и озорством, восстанавливает в родном краю справедливость. Но рано или поздно любой «сказке» приходит конец….-Сэмпл КиноПоиск-Качество видео: HDRip
Формат видео: AVI
Видео кодек: XviD
Аудио кодек: MP3
Видео: 688x288, 24.000 fps, 1000 kbps avg, 0.21 bit/pixel
Аудио: 48 kHz, 2 ch, 128 kbps
Cубтитры: отсутствуют-
Общее
Полное имя : C:\Users\Ромик\Pictures\Соловей-Разбойник\Solovej.Razbojnik.2012.HDRip.700Mb.[pirat.ca].avi
Формат : AVI
Формат/Информация : Audio Video Interleave
Размер файла : 745 Мбайт
Продолжительность : 1 ч. 31 м.
Общий поток : 1137 Кбит/сек
Название фильма : Solovej.Razbojnik.2012.HDRip.700Mb.[pirat.ca]
Программа кодирования : VirtualDubMod 1.5.10.2 (build 2540/release)
Видео
Идентификатор : 0
Формат : MPEG-4 Visual
Профиль формата : Advanced [email protected]
Параметр BVOP формата : 2
Параметр QPel формата : Нет
Параметр GMC формата : Без точки перехода
Параметр матрицы формата : Default (MPEG)
Идентификатор кодека : XVID
Идентификатор кодека/Подсказка : XviD
Продолжительность : 1 ч. 31 м.
Битрейт : 1000 Кбит/сек
Ширина : 688 пикселей
Высота : 288 пикселей
Соотношение сторон : 2,40:1
Частота кадров : 24,000 кадра/сек
Цветовое пространство : YUV
Субдискретизация насыщенности : 4:2:0
Битовая глубина : 8 бит
Тип развёртки : Прогрессивная
Метод сжатия : С потерями
Бит/(Пиксели*Кадры) : 0.210
Размер потока : 655 Мбайт (88%)
Библиотека кодирования : XviD 1.2.0.dev47 (UTC 2006-11-01)
Аудио
Идентификатор : 1
Формат : MPEG Audio
Версия формата : Version 1
Профиль формата : Layer 3
Идентификатор кодека : 55
Идентификатор кодека/Подсказка : MP3
Продолжительность : 1 ч. 31 м.
Вид битрейта : Постоянный
Битрейт : 128 Кбит/сек
Каналы : 2 канала
Частота : 48,0 КГц
Метод сжатия : С потерями
Размер потока : 83,9 Мбайт (11%)
Выравнивание : Соединение по промежуткам
Продолжительность промежутка : 42 мс. (1,00 видеокадр)
Время предзагрузки промежутка : 504 мс.
Библиотека кодирования : LAME3.99r
Настройки программы : -m s -V 4 -q 2 -lowpass 17 -b 128
-
-
-
Download / Скачать

Хотите скачать бесплатно? Зарегистрируйтесь на сайте (ссылка на регистрацию). Pirat.ca - самый быстрый торрент трекер в рунете!

Как скачивать  ·   Что такое торрент  ·   Рейтинг и ограничения

uran

Корсар

388

Пост 08-Дек-2012 12:12 (спустя 30 минут)

[Q] 

[Профиль]  [ЛС] 

PycTABEJIi

Штурман

165

Пост 08-Дек-2012 16:13 (спустя 4 часа)

[Q] 

Ща качнем

_________________
[Профиль]  [ЛС] 

Ветеран

Морской Волк

Пост 08-Дек-2012 23:15 (спустя 7 часов)

[Q] 

Ждал
[Профиль]  [ЛС] 

UraToR

Лоцман

Пост 10-Дек-2012 00:06 (спустя 1 день)

[Q] 

На щет "гуана" согласен.. Не лучший жанр батюшка и многодетный отец Быков выбрал для сольной кареры , особенно после "Интернов.." bl
[Профиль]  [ЛС] 

UraToR

Лоцман

Пост 10-Дек-2012 00:09 (спустя 2 минуты)

[Q] 

Охлобыстин*))
[Профиль]  [ЛС] 

вячеслав63

Шкипер

Пост 10-Дек-2012 13:50 (спустя 13 часов)

[Q] 

[Профиль]  [ЛС] 

вячеслав63

Шкипер

Пост 17-Дек-2012 21:17 (спустя 7 дней)

[Q] 

an
[Профиль]  [ЛС] 

YeahTost

Лоцман

Пост 18-Дек-2012 08:00 (спустя 10 часов)

[Q] 

[Профиль]  [ЛС] 

jocose

Морской Волк

Пост 20-Дек-2012 19:13 (спустя 2 дня 11 часов)

[Q] 

[Профиль]  [ЛС] 

znx9

Штурман

Пост 26-Янв-2013 22:52 (спустя 1 месяц 6 дней)

[Q] 

спасибо ок
[Профиль]  [ЛС] 
Показать сообщения:    
Ответить на тему

Текущее время: Сегодня 21:24

Часовой пояс: GMT + 4



Вы не можете начинать темы
Вы не можете отвечать на сообщения
Вы не можете редактировать свои сообщения
Вы не можете удалять свои сообщения
Вы не можете голосовать в опросах
Вы не можете прикреплять файлы к сообщениям
Вы не можете скачивать файлы

▼ Вниз