ML
     
  Уважаемый Гость!
Вы можете поддержать проект и зарегистрироваться у наших партнеров - онлайн-стратегия MyLands. При регистрации в игре Вы получите код, который сможете активировать после регистрации на pirat.ca и получить 1000 дублонов.

Ваш код:
21acd5966619d49ad0b90c3305467b4646cc11a8
 
     

Ёлки (Тимур Бекмамбетов, Александр Войтинский, Александр Андрющенко) [2010 г., комедия, BDRip]

Страницы :  1, 2  След.

Ответить на тему
 
Автор
Сообщение

Пост 16-Дек-2011 09:06

[Q] 

zyyx

--Ёлки
«Новый год атакует!»
-- Год выпуска: 2010
Мировая премьера: 13 декабря 2010
Российская премьера: 16 декабря 2010, «Bazelevs Distribution»
Дата выхода DVD: 20 января 2011, «Новый Диск»
Дата выхода Blu-Ray: 20 января 2011, «Новый Диск»
Страна: Россия
Жанр: комедия
Продолжительность: 01:28:58
Перевод: Не требуется [Лицензия]
Режиссер: Тимур Бекмамбетов, Александр Войтинский, Александр Андрющенко
В ролях: Сергей Светлаков, Вера Брежнева, Екатерина Вилкова, Артур Смольянинов, Сергей Гармаш, Иван Ургант, Виктор Вержбицкий
Описание: События самой новогодней комедии ЁЛКИ происходят в 11 городах: Калининграде, Казани, Перми, Уфе, Бавлах, Екатеринбурге, Красноярске, Якутске, Новосибирске, Санкт-Петербурге и Москве. Герои фильма — таксист и поп-дива, бизнесмен и актер, сноубордист и лыжник, студент и пенсионерка, пожарный и директриса, вор и милиционер, гастарбайтер и президент России. Все они оказываются в самый канун Нового года в очень непростой ситуации, выйти из которой им поможет только чудо… или Теория шести рукопожатий, согласно которой каждый человек на земле знает другого через шесть знакомых.
Источник/Качество: BDRip | Сэмпл
Формат: AVI
Видео кодек: XviD
Аудио кодек: AC3
Видео: 720x304 (2.37:1), 23.976 fps, XviD MPEG-4 ~1887 kbps avg, 0.36 bit/pixel
Аудио: 48 kHz, AC3 Dolby Digital, 3/2 (L,C,R,l,r) + LFE ch, ~448.00 kbps avg
General
Complete name : D:\pirat.ca\Elki.2010.BDRip.XviD-denashekkk.avi
Format : AVI
Format/Info : Audio Video Interleave
File size : 1.46 GiB
Duration : 1h 28mn
Overall bit rate : 2 345 Kbps
Writing application : VirtualDubMod 1.5.10.3 | www.virtualdub-fr.org || (build 2550/release)
Writing library : VirtualDubMod build 2550/release
Video
ID : 0
Format : MPEG-4 Visual
Format profile : Advanced [email protected]
Format settings, BVOP : 1
Format settings, QPel : No
Format settings, GMC : No warppoints
Format settings, Matrix : Custom
Codec ID : XVID
Codec ID/Hint : XviD
Duration : 1h 28mn
Bit rate : 1 887 Kbps
Width : 720 pixels
Height : 304 pixels
Display aspect ratio : 2.35:1
Frame rate : 23.976 fps
Color space : YUV
Chroma subsampling : 4:2:0
Bit depth : 8 bits
Scan type : Progressive
Compression mode : Lossy
Bits/(Pixel*Frame) : 0.360
Stream size : 1.17 GiB (80%)
Writing library : XviD 64
Audio
ID : 1
Format : AC-3
Format/Info : Audio Coding 3
Mode extension : CM (complete main)
Codec ID : 2000
Duration : 1h 28mn
Bit rate mode : Constant
Bit rate : 448 Kbps
Channel(s) : 6 channels
Channel positions : Front: L C R, Side: L R, LFE
Sampling rate : 48.0 KHz
Bit depth : 16 bits
Compression mode : Lossy
Stream size : 285 MiB (19%)
Alignment : Split accross interleaves
Interleave, duration : 42 ms (1.00 video frame)
Interleave, preload duration : 500 ms



Download / Скачать

Хотите скачать бесплатно? Зарегистрируйтесь на сайте (ссылка на регистрацию). Pirat.ca - самый быстрый торрент трекер в рунете!

Как скачивать  ·   Что такое торрент  ·   Рейтинг и ограничения

Пост 16-Дек-2011 09:11 (спустя 5 минут)

Топик был перенесен из форума Наше Кино в форум Российские фильмы

Skinwalker
 

lucky14

Корсар

Пост 14-Янв-2012 13:45 (спустя 29 дней)

[Q] 

хороший добрый фильм
[Профиль]  [ЛС] 

Sergi4

Гроза морей

Пост 17-Янв-2012 23:27 (спустя 3 дня)

[Q] 

спасибо
[Профиль]  [ЛС] 

qwasca

Морской Волк

359

Пост 18-Янв-2012 18:49 (спустя 19 часов)

[Q] 

посмотрим елки-палки

_________________
[Профиль]  [ЛС] 

KIRST

Корсар

Пост 20-Янв-2012 20:44 (спустя 2 дня 1 час)

[Q] 

Фильм понравился,спасибо.
[Профиль]  [ЛС] 

гаррисмолл

Шкипер

Пост 22-Янв-2012 17:01 (спустя 1 день 20 часов)

[Q] 

Хороший добрый фильм. На один раз. ИМХО
[Профиль]  [ЛС] 

U-858

Флибустьер

Пост 28-Янв-2012 22:48 (спустя 6 дней)

[Q] 

СПАСИБО!!!!!!!!!!!!!!!
[Профиль]  [ЛС] 

yano4ka

Шкипер

Пост 01-Фев-2012 21:37 (спустя 3 дня)

[Q] 

отличный фильм! добрый, семейный)
[Профиль]  [ЛС] 

Trimod

Корсар

Пост 02-Фев-2012 20:42 (спустя 23 часа)

[Q] 

Спасибо, оценим )
[Профиль]  [ЛС] 

Grand Zero

Морской Волк

Пост 04-Фев-2012 15:49 (спустя 1 день 19 часов)

[Q] 

да классный фильм спасибо
[Профиль]  [ЛС] 

Grand Zero

Морской Волк

Пост 04-Фев-2012 16:00 (спустя 11 минут)

[Q] 

да классный фильм спасибо
[Профиль]  [ЛС] 

^_^ Шеля ^_^

Шкипер

Пост 12-Фев-2012 12:51 (спустя 7 дней)

[Q] 

[Профиль]  [ЛС] 

Aib0lid

Морской Волк

Пост 05-Мар-2012 11:24 (спустя 21 день)

[Q] 

[Профиль]  [ЛС] 

vik_kk

Штурман

Пост 14-Апр-2012 07:19 (спустя 1 месяц 8 дней)

[Q] 

Спасибо!!!!
[Профиль]  [ЛС] 

Scherbatsky

Лоцман

Пост 24-Сен-2012 05:39 (спустя 5 месяцев 9 дней)

[Q] 

Фильм очень понравился!! Спасибо
[Профиль]  [ЛС] 

hohol541

Корсар

Пост 29-Дек-2012 10:49 (спустя 3 месяца 5 дней)

[Q] 

Лучше на потраченные на рекламу деньги наняли нормального сценариста.
[Профиль]  [ЛС] 

Lana38

Корсар

Пост 05-Янв-2014 13:21 (спустя 1 год)

[Q] 

Захотелось пересмотреть под настроение ) Спасибо раздающему !
[Профиль]  [ЛС] 

pp2141

Гроза морей

Пост 20-Янв-2014 16:11 (спустя 15 дней)

[Q] 

С Лови бочку пасибо
[Профиль]  [ЛС] 

ALEHAN

Легенда

Пост 21-Янв-2014 00:51 (спустя 8 часов)

[Q] 

Уже третьи елки вышли, решил все скачать и посмотреть разом. Фильм понравился, побольше бы таких. В раздаче в некоторых местах на моем GOM player были цветовые артефакты.
[Профиль]  [ЛС] 

Bobrizha

Морской Волк

Пост 21-Янв-2014 14:41 (спустя 13 часов)

[Q] 

Спасибо!!! хороший фильм.
[Профиль]  [ЛС] 

yam672

Корсар

Пост 22-Янв-2014 16:48 (спустя 1 день 2 часа)

[Q] 

спасибо! сразу три серии посмотрим!! Пиратка рулит!
[Профиль]  [ЛС] 

Bobrizha

Морской Волк

Пост 30-Янв-2014 00:04 (спустя 7 дней)

[Q] 

Все три части однообразные.
[Профиль]  [ЛС] 

ment

Шкипер

Пост 30-Янв-2014 15:02 (спустя 14 часов)

[Q] 

да классный фильм спасибо.
[Профиль]  [ЛС] 

a s d

Шкипер

1

Пост 09-Май-2014 00:40 (спустя 3 месяца 9 дней)

[Q] 

бекмамбетов вошел в илитку и писанулся на шняшку!!!руби бабло мамбет!!
[Профиль]  [ЛС] 

Lana38

Корсар

Пост 08-Янв-2015 18:47 (спустя 7 месяцев 29 дней)

[Q] 

Хороший, добрый, новогодний фильм для семейного просмотра.)) Всем качать!!! Автору респект!!!
[Профиль]  [ЛС] 

Лукинофф2

Штурман

Пост 31-Дек-2015 22:49 (спустя 11 месяцев 23 дня)

[Q] 

Супер! Супер!
С НАСТУПАЮЩИМ НОВЫМ ГОДОМ!!!
[Профиль]  [ЛС] 

Clean_OK

Пост 10-Янв-2016 20:39 (спустя 9 дней)

[Q] 

Супер!

_________________
[Профиль]  [ЛС] 

charocee

Морской Волк

48

Пост 26-Янв-2016 20:39 (спустя 15 дней)

[Q] 

Спасибо!!! Всем качать!!!
[Профиль]  [ЛС] 

adf854

Лоцман

Пост 21-Фев-2016 18:05 (спустя 25 дней)

[Q] 

Ну на конец-то вышел нормальный фильм
[Профиль]  [ЛС] 
Показать сообщения:    
Ответить на тему

Текущее время: Сегодня 23:20

Часовой пояс: GMT + 4



Вы не можете начинать темы
Вы не можете отвечать на сообщения
Вы не можете редактировать свои сообщения
Вы не можете удалять свои сообщения
Вы не можете голосовать в опросах
Вы не можете прикреплять файлы к сообщениям
Вы не можете скачивать файлы

▼ Вниз