ML
     
  Уважаемый Гость!
Вы можете поддержать проект и зарегистрироваться у наших партнеров - онлайн-стратегия MyLands. При регистрации в игре Вы получите код, который сможете активировать после регистрации на pirat.ca и получить 1000 дублонов.

Ваш код:
93dbf9fbdfa06c41d3b5a2c3921149ba36168c41
 
     

Бригада: Наследник (Денис Алексеев) [2012 г., боевик, криминал, DVDRip]

Ответить на тему
 
Автор
Сообщение

Пост 16-Дек-2012 09:01

[Q] 

ara1205

-Бригада: Наследник-- Производство: Россия
Режиссер: Денис Алексеев
Жанр: боевик, криминал
Год выпуска: 2012 г.
Продолжительность: 01:41:56
Дата выхода DVD: 20 декабря 2012-В ролях: Иван Макаревич, Екатерина Гусева, Кирилл Нагиев, Владислав Демин, Александр Иншаков, Анна Попова, Валерий Золотухин, Игорь Жижикин, Юрий Чурсин, Наталия Гуслистая-Описание: Фильм является идейным продолжением жизни героев телесериала «Бригада». Однако акцент смещен в историю сына Александра Белова — Ивана. Это Кино о современной России. О том, что у всех на устах: политике, коррупции, цинизме крупного бизнеса и спецслужб. О новом поколении, которое, узнав правду о нечистом бизнесе родителей, не идет по их стопам, а выбирает новый путь. Для них дороги понятия чести, любви и Родины. Герой, комфортно живший за границей, тем не менее, выбирает Россию (в отличие от сериала) и остается жить в ней, надеясь привнести эти идеалы в жизнь своих близких и страны в целом.-Сэмпл КиноПоиск-Качество видео: DVDRip
Формат видео: AVI
Видео кодек: XviD
Аудио кодек: MP3
Видео: 656x288, 25 fps, 886 kbps avg, 0.188 bit/pixel
Аудио: 128 kb/s, 2 ch, 48.0 KHz
Cубтитры: отсутствуют-
Общее
Полное имя : C:\Users\Ромик\Pictures\Посмотреть\Бригада Наследник\Brigada.Naslednik.2012.DVDRip.745Mb.[pirat.ca].avi
Формат : AVI
Формат/Информация : Audio Video Interleave
Размер файла : 746 Мбайт
Продолжительность : 1 ч. 41 м.
Общий поток : 1024 Кбит/сек
Программа кодирования : VirtualDubMod 1.5.10.2 (build 2540/release)
Библиотека кодирования : VirtualDubMod build 2540/release
Видео
Идентификатор : 0
Формат : MPEG-4 Visual
Профиль формата : Advanced [email protected]
Параметр BVOP формата : 2
Параметр QPel формата : Нет
Параметр GMC формата : Без точки перехода
Параметр матрицы формата : Default (MPEG)
Идентификатор кодека : XVID
Идентификатор кодека/Подсказка : XviD
Продолжительность : 1 ч. 41 м.
Битрейт : 886 Кбит/сек
Ширина : 656 пикселей
Высота : 288 пикселей
Соотношение сторон : 2,25:1
Частота кадров : 25,000 кадров/сек
Цветовое пространство : YUV
Субдискретизация насыщенности : 4:2:0
Битовая глубина : 8 бит
Тип развёртки : Прогрессивная
Метод сжатия : С потерями
Бит/(Пиксели*Кадры) : 0.188
Размер потока : 646 Мбайт (87%)
Библиотека кодирования : XviD 1.2.0.dev47 (UTC 2006-11-01)
Аудио
Идентификатор : 1
Формат : MPEG Audio
Версия формата : Version 1
Профиль формата : Layer 3
Идентификатор кодека : 55
Идентификатор кодека/Подсказка : MP3
Продолжительность : 1 ч. 41 м.
Вид битрейта : Постоянный
Битрейт : 128 Кбит/сек
Каналы : 2 канала
Частота : 48,0 КГц
Метод сжатия : С потерями
Размер потока : 93,3 Мбайт (13%)
Выравнивание : Соединение по промежуткам
Продолжительность промежутка : 40 мс. (1,00 видеокадр)
Время предзагрузки промежутка : 504 мс.
Библиотека кодирования : LAME3.99r
Настройки программы : -m s -V 4 -q 2 -lowpass 17 -b 128
-
-
-
Download / Скачать

Хотите скачать бесплатно? Зарегистрируйтесь на сайте (ссылка на регистрацию). Pirat.ca - самый быстрый торрент трекер в рунете!

Как скачивать  ·   Что такое торрент  ·   Рейтинг и ограничения

yulya230784

Морской Волк

927

Пост 16-Дек-2012 11:29 (спустя 2 часа 28 минут)

[Q] 

Спасибо за размерчик!!!
[Профиль]  [ЛС] 

svarhik

Лоцман

Пост 16-Дек-2012 12:09 (спустя 40 минут)

[Q] 

dc dc dc dc [thumb][img] [/img][/thumb]
[Профиль]  [ЛС] 

Мулька

Шкипер

Пост 17-Дек-2012 07:41 (спустя 19 часов)

[Q] 

фильм кака полная =\
[Профиль]  [ЛС] 

hevard

Гроза морей

2109

Пост 23-Дек-2012 17:51 (спустя 6 дней)

[Q] 

Отзыв с КиноПоиска порадовал!!!
Я, как и многие из тех, кто в свое время полюбил и до сих пор любит Бригаду, наконец-то посмотрел этот блестящий, мастерски снятый, невероятно глубокий, держащий в напряжении до самого конца и уже ставший современной классикой фильм, который по праву можно считать одним из лучших фильмов десятилетия.
Сценарий. Настолько захватывающий и детально продуманный, учтена каждая мелочь и каждый сюжетный ход заставляет открыть рот и восхищаться увиденным. Браво! Браво, Александр Иванович и Денис Алексеев! Настолько оригинальный и ни с чем несравнимый сценарий! Тут даже Роберту Макки есть чему поучиться!
Актеры. Идеальное попадание во все образы! Настолько качественно и продуманно подошли создатели к образам и персонажам в фильме! Иван Макаревич — гениален! Его харизма почти ни в чем не уступает харизме Кристиана Бэйла или Эдварда Нортона! Это юное дарование своей игрой начало прокладывать себе дорогу в Голливуд! Этот парень еще получит свой Оскар, поверьте мне!
Диалоги. Они изумительны. Они бесподобны! Что ни слово, то алмаз неограненый! Сколько же в них смысла и глубины! Иной раз думал, что работать над диалогами Александру Ивановичу помогала команда драматургов! Браво еще раз, Александр Иванович! Браво!
Спецэффекты. В некоторых сценах спецэффекты были с явным почерком студии ILM, не понятно почему их не указали в титрах. Одним словом — ошеломляюще!
Если резюмировать, то фильм не просто удался, он буквально бьет наповал и заставляет пересматривать его снова и снова! А главное верить! Верить в то, что российский кинематограф способен возродиться и серьезно конкурировать не только с Голливудом, но и стать одним из самых востребованных в мире!
10 из 10
P.S: Я пошутил. Фильм просто ужасен.

_________________
-Я старый пират и не знаю слов лицензионного соглашения...
[Профиль]  [ЛС] 

fortrater

Корсар

802

Пост 25-Дек-2012 21:38 (спустя 2 дня 3 часа)

[Q] 

hevard,
Посмотрел, почитал, даже добавлять ничего не буду)))))

_________________
[Профиль]  [ЛС] 

JAGUAR47

Штурман

Пост 26-Дек-2012 01:30 (спустя 3 часа)

[Q] 

Фильм совершенно не похож на предыдущую часть.
[Профиль]  [ЛС] 

trogvar_10

Корсар

38

Пост 26-Дек-2012 02:17 (спустя 46 минут)

[Q] 

[Профиль]  [ЛС] 

levha35

Штурман

Пост 03-Янв-2013 23:36 (спустя 8 дней)

[Q] 

[Профиль]  [ЛС] 

radzik-

Штурман

Пост 04-Янв-2013 01:59 (спустя 2 часа 22 минуты)

[Q] 

хрень полная

_________________
radzik
[Профиль]  [ЛС] 

Мурзило

Корсар

Пост 05-Янв-2013 13:06 (спустя 1 день 11 часов)

[Q] 

ну нето что бы хрень ) помойму сняли мыльницу и воспользовались именами героев сериала
[Профиль]  [ЛС] 

Пост 18-Янв-2013 09:32 (спустя 12 дней)

Топик был перенесен из форума Новинки (HD|DVD|BD|TV|SAT|PDTV| - Rips) в форум Российские фильмы

ara1205
 

smartboy

Корсар

Пост 20-Янв-2013 17:03 (спустя 15 дней)

[Q] 

af
[Профиль]  [ЛС] 
Показать сообщения:    
Ответить на тему

Текущее время: Сегодня 20:22

Часовой пояс: GMT + 4



Вы не можете начинать темы
Вы не можете отвечать на сообщения
Вы не можете редактировать свои сообщения
Вы не можете удалять свои сообщения
Вы не можете голосовать в опросах
Вы не можете прикреплять файлы к сообщениям
Вы не можете скачивать файлы

▼ Вниз