ML
     
  Уважаемый Гость!
Вы можете поддержать проект и зарегистрироваться у наших партнеров - онлайн-стратегия MyLands. При регистрации в игре Вы получите код, который сможете активировать после регистрации на pirat.ca и получить 1000 дублонов.

Ваш код:
69f316be79867e9bf99caee9682d20bb11964507
 
     

Бывший сотрудник (Олег Ларин) [2012 г., Драма,Криминал, DVDRip]

Ответить на тему
 
Автор
Сообщение

Пост 17-Дек-2012 14:39

[Q] 

Amethyst

-Бывший сотрудник-- Год выпуска: 2012
Дата выхода DVD: 31 мая 2012, «Монолит»
Производство: Россия
Жанр: Драма,Криминал
Продолжительность: 01:29:42
Режиссер: Олег Ларин
В ролях: Кирилл Полухин, Максим Коновалов, Михаил Полосухин, Вера Баханкова, Максим Меркулов, Юрий Архангельский, Диана Дезмари, Никита Морозов, Вячеслав Аркунов, Полина Булычева
Описание: Артём Семёнов - сотрудник УГРО, обычный оперативник, "женатый" на работе в ущерб семье. Он всегда честно исполнял свой долг и не отступал даже в те моменты, когда его просили быть поосторожнее. Арестовав опасного преступника Медведя, совершившего ряд ограблений инкассаторов и безжалостно убившего всех стоящих на пути, Семёнов не обратил внимания на предостережение, а зря. Матерый бандит сбежал, во время побега убив друга и коллегу Артёма - Петровича. Семёнова обвинили в пособничестве преступнику, выгнали со службы, в одночасье он стал нерукопожатным для друзей и сослуживцев и объектом насмешек для врагов. Что остается бывшему сотруднику, у которого отняли все самое дорогое - работу, семью, друзей? Только найти и наказать того, кто сделал его для всех бывшим...

Сэмпл КиноПоиск
--Источник/Качество: DVDRip
Формат: AVI
Видео кодек: XviD
Аудио кодек: AC-3
Видео: XviD, 720x368, 25.000 fps, 1938 Kbit/s
Аудио: AC-3, 48000 Hz, 2 каналов, 384 kbit/s
Общее
Полное имя : D:\Торенты\Byvshij.sotrudnik.2012.DVDRip.1400mb.avi
Формат : AVI
Формат/Информация : Audio Video Interleave
Размер файла : 1,46 Гбайт
Продолжительность : 1 ч. 29 м.
Общий поток : 2331 Кбит/сек
Программа кодирования : VirtualDubMod 1.5.10.3 | www.virtualdub-fr.org || (build 2550/release)
Библиотека кодирования : VirtualDubMod build 2550/release
Видео
Идентификатор : 0
Формат : MPEG-4 Visual
Профиль формата : Advanced [email protected]
Параметр BVOP формата : 2
Параметр QPel формата : Нет
Параметр GMC формата : Без точки перехода
Параметр матрицы формата : Default (MPEG)
Идентификатор кодека : XVID
Идентификатор кодека/Подсказка : XviD
Продолжительность : 1 ч. 29 м.
Битрейт : 1938 Кбит/сек
Ширина : 720 пикселей
Высота : 368 пикселей
Соотношение сторон : 1,957
Частота кадров : 25,000 кадров/сек
Цветовое пространство : YUV
Субдискретизация насыщенности : 4:2:0
Битовая глубина : 8 бит
Тип развёртки : Прогрессивная
Метод сжатия : С потерями
Бит/(Пиксели*Кадры) : 0.293
Размер потока : 1,21 Гбайт (83%)
Библиотека кодирования : XviD 1.2.1 (UTC 2008-12-04)
Аудио
Идентификатор : 1
Формат : AC-3
Формат/Информация : Audio Coding 3
Расширение режима : CM (complete main)
Параметр Endianness формата : Big
Идентификатор кодека : 2000
Продолжительность : 1 ч. 29 м.
Вид битрейта : Постоянный
Битрейт : 384 Кбит/сек
Каналы : 2 канала
Расположение каналов : Front: L R
Частота : 48,0 КГц
Битовая глубина : 16 бит
Метод сжатия : С потерями
Размер потока : 246 Мбайт (16%)
Выравнивание : Разделение по промежуткам
Продолжительность промежутка : 40 мс. (1,00 видеокадр)
Время предзагрузки промежутка : 500 мс.
Download / Скачать

Хотите скачать бесплатно? Зарегистрируйтесь на сайте (ссылка на регистрацию). Pirat.ca - самый быстрый торрент трекер в рунете!

Как скачивать  ·   Что такое торрент  ·   Рейтинг и ограничения



Последний раз редактировалось: Amethyst (2012-12-17 15:04), всего редактировалось 3 раз(а)

Пост 17-Дек-2012 15:02 (спустя 22 минуты)

Топик был перенесен из форума Новинки (HD|DVD|BD|TV|SAT|PDTV| - Rips) в форум Российские фильмы

genkasper
 

odyssey123

Флибустьер

Пост 18-Дек-2012 20:25 (спустя 1 день 5 часов)

[Q] 

[Профиль]  [ЛС] 
Показать сообщения:    
Ответить на тему

Текущее время: Сегодня 14:31

Часовой пояс: GMT + 4



Вы не можете начинать темы
Вы не можете отвечать на сообщения
Вы не можете редактировать свои сообщения
Вы не можете удалять свои сообщения
Вы не можете голосовать в опросах
Вы не можете прикреплять файлы к сообщениям
Вы не можете скачивать файлы

▼ Вниз