ML
     
  Уважаемый Гость!
Вы можете поддержать проект и зарегистрироваться у наших партнеров - онлайн-стратегия MyLands. При регистрации в игре Вы получите код, который сможете активировать после регистрации на pirat.ca и получить 1000 дублонов.

Ваш код:
2fd4e750dd89cae3a36ea360f2b345ccfeb562d3
 
     

Искупление (Александр Прошкин) [2012 г., драма, военный, история, DVDRip] [Лицензия]

Ответить на тему
 
Автор
Сообщение

Пост 17-Дек-2012 19:39

[Q] 

AGKRus36

-Искупление-- Производство: Россия / Киномир
Режиссер: Александр Прошкин
Жанр: драма, военный, история
Год выпуска: 2012 г.
Продолжительность: 02:00:22
Российская премьера: 1 ноября 2012, «Каропрокат»
Дата выхода DVD: 17 декабря 2012, «Новый Диск»
В ролях: Виктория Романенко, Риналь Мухаметов, Андрей Панин, Татьяна Яковенко, Виктор Сухоруков, Сергей Дрейден, Екатерина Волкова, Наталья Морозова, Алишер Умаров, Николай Бутенин-Описание: Действие фильма разворачивается в канун первого послевоенного Нового 1946 года в разоренном южном городе, где еще совсем недавно жили в мире и согласии представители различных национальностей. Молох войны разделил их на жертв и палачей, породил бесконечное сострадание и нечеловеческую низость. Впрочем, и послевоенная жизнь в разрухе, голоде и нищете обернулась тяжким испытанием. Посудомойка, вдова героя-летчика, ворует из милицейской столовой, чтоб прокормить шестнадцатилетнюю дочь и двух доходяг, которых, по доброте душевной, приютила в своем убогом жилище. Возмущенная дочь доносит на мать и та отправляется искупать грех в тюрьму...-Сэмпл КиноПоиск
Качество видео: DVDRip
Формат видео: AVI
Видео кодек: XviD
Аудио кодек: AC3
Видео: 704x288, 1981 kbps, 25.000 fps
Аудио: AC3, 448 кб/с (6 ch), 48.0 KHz (Лицензия)
Cубтитры: отсутствуют
F:\Фильмы\Искупление1\Iskuplenie.2012.O.DVDRip.avi
General
Complete name : F:\Фильмы\Искупление1\Iskuplenie.2012.O.DVDRip.avi
Format : AVI
Format/Info : Audio Video Interleave
Format profile : OpenDML
File size : 2.05 GiB
Duration : 2h 0mn
Overall bit rate : 2 437 Kbps
Genre : Drama | History | War
Writing application : VirtualDubMod 1.5.10.2 (build 2540/release)
Original source form/Name : Movie
Video #0
ID : 0
Format : MPEG-4 Visual
Format profile : Advanced [email protected]
Format settings, BVOP : 2
Format settings, QPel : No
Format settings, GMC : No warppoints
Format settings, Matrix : Custom
Codec ID : XVID
Codec ID/Hint : XviD
Duration : 2h 0mn
Bit rate : 1 976 Kbps
Width : 704 pixels
Height : 288 pixels
Display aspect ratio : 2.40:1
Frame rate : 25.000 fps
Color space : YUV
Chroma subsampling : 4:2:0
Bit depth : 8 bits
Scan type : Progressive
Compression mode : Lossy
Bits/(Pixel*Frame) : 0.390
Stream size : 1.66 GiB (81%)
Writing library : XviD 64
Audio #1
ID : 1
Format : AC-3
Format/Info : Audio Coding 3
Mode extension : CM (complete main)
Format settings, Endianness : Big
Codec ID : 2000
Duration : 2h 0mn
Bit rate mode : Constant
Bit rate : 448 Kbps
Channel(s) : 6 channels
Channel positions : Front: L C R, Side: L R, LFE
Sampling rate : 48.0 KHz
Bit depth : 16 bits
Compression mode : Lossy
Stream size : 386 MiB (18%)
Alignment : Split accross interleaves
Interleave, duration : 40 ms (1.00 video frame)
Interleave, preload duration : 500 ms
Download / Скачать

Хотите скачать бесплатно? Зарегистрируйтесь на сайте (ссылка на регистрацию). Pirat.ca - самый быстрый торрент трекер в рунете!

Как скачивать  ·   Что такое торрент  ·   Рейтинг и ограничения

Пост 17-Дек-2012 20:55 (спустя 1 час 16 минут)

Топик был перенесен из форума Наше кино (Трюм) в форум Новинки (HD|DVD|BD|TV|SAT|PDTV| - Rips)

genkasper
 

polozm

Легенда

Пост 17-Дек-2012 21:15 (спустя 1 час 36 минут)

[Q] 

Спасибо.Панин,Сухоруков!!!надо смотреть

_________________
mac mini -2.0 GHz Intel Core i7/ 8 GB DDR3. /Intel HD 3000(512mb)OS X 10.9 Mavericks
[Профиль]  [ЛС] 

wolf888

Лоцман

Пост 17-Дек-2012 22:49 (спустя 1 час 33 минуты)

[Q] 

благодарю!) очень ждал
[Профиль]  [ЛС] 

kmv01

Гроза морей

Пост 18-Дек-2012 10:50 (спустя 12 часов)

[Q] 

Спасибо, вовремя!
[Профиль]  [ЛС] 

Znoi

Флибустьер

1163

Пост 18-Дек-2012 11:48 (спустя 58 минут)

[Q] 

[Профиль]  [ЛС] 

(47rus)

Штурман

Пост 18-Дек-2012 13:28 (спустя 1 час 40 минут)

[Q] 

[Профиль]  [ЛС] 

Sergunatt

Шкипер

Пост 18-Дек-2012 20:24 (спустя 6 часов)

[Q] 

Интересный фильм!
[Профиль]  [ЛС] 

krendel1973

Флибустьер

Пост 18-Дек-2012 21:17 (спустя 52 минуты)

[Q] 

[Профиль]  [ЛС] 

plv0769

Лоцман

Пост 19-Дек-2012 20:32 (спустя 23 часа)

[Q] 

[Профиль]  [ЛС] 

Пост 18-Янв-2013 09:34 (спустя 29 дней)

Топик был перенесен из форума Новинки (HD|DVD|BD|TV|SAT|PDTV| - Rips) в форум Российские фильмы

ara1205
 
Показать сообщения:    
Ответить на тему

Текущее время: Сегодня 14:12

Часовой пояс: GMT + 4



Вы не можете начинать темы
Вы не можете отвечать на сообщения
Вы не можете редактировать свои сообщения
Вы не можете удалять свои сообщения
Вы не можете голосовать в опросах
Вы не можете прикреплять файлы к сообщениям
Вы не можете скачивать файлы

▼ Вниз