ML
     
  Уважаемый Гость!
Вы можете поддержать проект и зарегистрироваться у наших партнеров - онлайн-стратегия MyLands. При регистрации в игре Вы получите код, который сможете активировать после регистрации на pirat.ca и получить 1000 дублонов.

Ваш код:
ec3b26eefbcdc72e08e9fd33c6846bb2ca10f8b1
 
     

Реальный папа (Сергей Бобров) [2007 г., Комедия, DVDRip]

Ответить на тему
 
Автор
Сообщение

Пост 20-Дек-2012 01:19

[Q] 

Folmer_MP38

Штурман

-Реальный папа-- Производство: Россия
Режиссер: Сергей Бобров
Жанр: Комедия
Год выпуска: 2007 г.
Продолжительность: 1:27:37
Российская премьера: 17 Апреля 2008
В ролях: Михаил Пореченков
Светлана Ходченкова
Анжелина Карелина
Дмитрий Дедюшко
Александр Дедюшко
Евгения Добровольская-Описание: «Реальный папа» — российская кинокомедия в главной роли с Михаилом Пореченковым. Премьера фильма состоялась 17 апреля 2008 года.-Качество видео: DVDRip
Формат видео: AVI
Видео кодек: XviD
Аудио кодек: AC3
Видео: 704*288, 1835 kbps, 25 fps
Аудио: 384kbps, 6 ch, 48kHz
Cубтитры: отсутствуют
Формат : AVI
Формат/Информация : Audio Video Interleave
Размер файла : 1,36 Гбайт
Продолжительность : 1 ч. 27 м.
Общий поток : 2229 Кбит/сек
Программа кодирования : VirtualDubMod 1.5.10.2 (build 2540/release)
Библиотека кодирования : VirtualDubMod build 2540/release
Видео
Идентификатор : 0
Формат : MPEG-4 Visual
Профиль формата : Advanced [email protected]
Параметр BVOP формата : 2
Параметр QPel формата : Нет
Параметр GMC формата : Без точки перехода
Параметр матрицы формата : Default (MPEG)
Режим смешивания : Сжатый битовый поток
Идентификатор кодека : XVID
Идентификатор кодека/Подсказка : XviD
Продолжительность : 1 ч. 27 м.
Битрейт : 1835 Кбит/сек
Ширина : 704 пикселя
Высота : 288 пикселей
Соотношение сторон : 2,40:1
Частота кадров : 25,000 кадров/сек
Цветовое пространство : YUV
Субдискретизация насыщенности : 4:2:0
Битовая глубина : 8 бит
Тип развёртки : Прогрессивная
Метод сжатия : С потерями
Бит/(Пиксели*Кадры) : 0.362
Размер потока : 1,12 Гбайт (82%)
Библиотека кодирования : XviD 1.1.2 (UTC 2006-11-01)
Аудио
Идентификатор : 1
Формат : AC-3
Формат/Информация : Audio Coding 3
Расширение режима : CM (complete main)
Параметр Endianness формата : Big
Идентификатор кодека : 2000
Продолжительность : 1 ч. 27 м.
Вид битрейта : Постоянный
Битрейт : 384 Кбит/сек
Каналы : 6 каналов
Расположение каналов : Front: L C R, Side: L R, LFE
Частота : 48,0 КГц
Битовая глубина : 16 бит
Метод сжатия : С потерями
Размер потока : 241 Мбайт (17%)
Выравнивание : Разделение по промежуткам
Продолжительность промежутка : 40 мс. (1,00 видеокадр)
Время предзагрузки промежутка : 500 мс.
Download / Скачать

Хотите скачать бесплатно? Зарегистрируйтесь на сайте (ссылка на регистрацию). Pirat.ca - самый быстрый торрент трекер в рунете!

Как скачивать  ·   Что такое торрент  ·   Рейтинг и ограничения



Последний раз редактировалось: Folmer_MP38 (2012-12-20 16:44), всего редактировалось 1 раз

Пост 20-Дек-2012 16:50 (спустя 15 часов)

Топик был перенесен из форума Наше кино (Трюм) в форум Российские фильмы

erchine
 

Billi Bob

Корсар

557

Пост 22-Дек-2012 15:33 (спустя 2 дня 14 часов)

[Q] 

Я конечно не сноб, но Паречинков заслуживает быть забытым на мусорке.
[Профиль]  [ЛС] 

Valentin2010

Корсар

Пост 18-Янв-2014 19:03 (спустя 1 год)

[Q] 

Конечно на вкус и цвет..... Но как по мне, довольно смешно, прикольно, и без напряга. Посмотрел от начала и до конца, расслабился, посмеялся от души.

_________________
"Никогда не мстите подлым людям. Просто станьте счастливыми. И они этого не переживут... " – Юрий Никулин
[Профиль]  [ЛС] 

L2.exe

Лоцман

Пост 08-Фев-2014 17:15 (спустя 20 дней)

[Q] 

Нормальный фильм
[Профиль]  [ЛС] 
Показать сообщения:    
Ответить на тему

Текущее время: Сегодня 03:47

Часовой пояс: GMT + 4



Вы не можете начинать темы
Вы не можете отвечать на сообщения
Вы не можете редактировать свои сообщения
Вы не можете удалять свои сообщения
Вы не можете голосовать в опросах
Вы не можете прикреплять файлы к сообщениям
Вы не можете скачивать файлы

▼ Вниз