ML
     
  Уважаемый Гость!
Вы можете поддержать проект и зарегистрироваться у наших партнеров - онлайн-стратегия MyLands. При регистрации в игре Вы получите код, который сможете активировать после регистрации на pirat.ca и получить 1000 дублонов.

Ваш код:
21acd5966619d49ad0b90c3305467b4646cc11a8
 
     

Конец света (Богдан Дробязко) [2012 г., Детектив, Боевик, SATRip]

Ответить на тему
 
Автор
Сообщение

Пост 21-Дек-2012 18:19

[Q] 

Jigsaw

 
-Конец света-- Производство: Россия, ТриИкс Медиа
Режиссер: Богдан Дробязко
Жанр: Детектив, Боевик
Год выпуска: 2012 г.
Продолжительность: 01:23:52
Российская премьера: 21 декабря 2012 (НТВ)
В ролях: Вячеслав Коробицин, Валентин Кузнецов, Владимир Матвеев, Алексей Фокин, Галина Сумина-Описание: Действие фильма происходит в день, когда весь мир ждет очередного конца света, на этот раз по календарю Майя. Город шумит: радио, афиши, люди на улицах – все спекулируют на конце света. У оперативника уголовного розыска н-ского района Соколова в этот день собственный конец света – его выгнала жена, поскольку заподозрила в измене. Соколов с коллегами разрабатывали банду автоподставщиков. Он получал информацию от сожительницы одного из бандитов, Куклы, пускал ей пыль в глаза, водил в ресторан, гулял и едва не оказался с ней в постели. В ресторане с Куклой Соколова случайно увидела подружка жены – та сделала свои выводы и все рассказала Маше. А Маша – дочь начальника ГУВД Маргелова, поэтому теперь ему грозят проблемы на работе. Соколова ждёт увольнение – для него это трагедия, поскольку у него в жизни нет ничего другого, кроме семьи и работы.
В районе происходит ЧП: в подвале районного дома культуры сектанты из «Небесного пути» забаррикадировались и обещают взорвать себя. Лидер секты – Гавриил – призывает всех покаяться, ибо конец света близок. Про Гавриила мало что известно, секта существует не так давно. С ним несколько десятков последователей, много женщин и детей. Они обложились взрывчаткой. К ДК стянуты все районные силовики. В результате штурма люди освобождены, но Гавриилу удалось уйти. Одновременно с этим в районе происходит ограбление банка. Соколову кажется странным это совпадение, и он вместе с Маргеловым бросается на поиски Гавриила.
«Конец света» – это история длиной в один бесконечный день. Для главного героя – опера Соколова – всё закончится и начнётся заново. Ему нужно лишь пережить этот день.
-

Сэмпл |КиноПоиск
Качество видео: SATRip
Формат видео: AVI
Видео кодек: DivX 5
Аудио кодек: MP3
Видео: MPEG4, DivX 5, 720x400 (16:9), 25.000 fps, 1997 Кбит/сек
Аудио: Rus: MP3, 48.0 KHz, 2 ch, 128 Kbps, CBR
Cубтитры: отсутствуют
Общее
Полное имя : E:\Konec.sveta.2012.SATRip.avi
Формат : AVI
Формат/Информация : Audio Video Interleave
Размер файла : 1,25 Гбайт
Продолжительность : 1 ч. 23 м.
Общий поток : 2135 Кбит/сек
Программа кодирования : VirtualDubMod 1.5.10.2 (build 2540/release)
Библиотека кодирования : VirtualDub build 29808/release
Видео
Идентификатор : 0
Формат : MPEG-4 Visual
Параметр BVOP формата : 1
Параметр QPel формата : Нет
Параметр GMC формата : Без точки перехода
Параметр матрицы формата : Default (H.263)
Режим смешивания : Сжатый битовый поток
Идентификатор кодека : DX50
Идентификатор кодека/Подсказка : DivX 5
Продолжительность : 1 ч. 23 м.
Битрейт : 1997 Кбит/сек
Ширина : 720 пикселей
Высота : 400 пикселей
Соотношение сторон : 16:9
Частота кадров : 25,000 кадров/сек
Цветовое пространство : YUV
Субдискретизация насыщенности : 4:2:0
Битовая глубина : 8 бит
Тип развёртки : Прогрессивная
Метод сжатия : С потерями
Бит/(Пиксели*Кадры) : 0.277
Размер потока : 1,17 Гбайт (94%)
Библиотека кодирования : DivX 6.8.5 (UTC 2009-08-20)
Аудио
Идентификатор : 1
Формат : MPEG Audio
Версия формата : Version 1
Профиль формата : Layer 3
Режим : Joint stereo
Идентификатор кодека : 55
Идентификатор кодека/Подсказка : MP3
Продолжительность : 1 ч. 23 м.
Вид битрейта : Постоянный
Битрейт : 128 Кбит/сек
Каналы : 2 канала
Частота : 48,0 КГц
Метод сжатия : С потерями
Размер потока : 76,8 Мбайт (6%)
Выравнивание : Соединение по промежуткам
Продолжительность промежутка : 40 мс. (1,00 видеокадр)
Время предзагрузки промежутка : 504 мс.
Библиотека кодирования : LAME3.90.3
Download / Скачать

Хотите скачать бесплатно? Зарегистрируйтесь на сайте (ссылка на регистрацию). Pirat.ca - самый быстрый торрент трекер в рунете!

Как скачивать  ·   Что такое торрент  ·   Рейтинг и ограничения

Пост 21-Дек-2012 19:15 (спустя 55 минут)

Топик был перенесен из форума Наше кино (Трюм) в форум Новинки (HD|DVD|BD|TV|SAT|PDTV| - Rips)

ara1205
 

kisu

Гроза морей

Пост 21-Дек-2012 19:41 (спустя 1 час 22 минуты)

[Q] 

забавное описание!надо глянуть!
[Профиль]  [ЛС] 

Wolf111

57120

Пост 21-Дек-2012 20:00 (спустя 19 минут)

[Q] 

[Профиль]  [ЛС] 

Apxun

Шкипер

Пост 21-Дек-2012 20:19 (спустя 18 минут)

[Q] 

уже и "фильм" сняли
[Профиль]  [ЛС] 

SaNyABA89

Морской Волк

Пост 21-Дек-2012 21:28 (спустя 1 час 9 минут)

[Q] 

уже и "фильм" сняли
да, за один день))

_________________
Талантам нужно помогать, бездарности пробьются сами!
[Профиль]  [ЛС] 

infiniti-r

Корсар

Пост 21-Дек-2012 21:37 (спустя 8 минут)

[Q] 

Зачем смотреть когда такое описание.Уже вся картина ясна.
[Профиль]  [ЛС] 

smartboy

Корсар

Пост 20-Янв-2013 19:24 (спустя 29 дней)

[Q] 

[Профиль]  [ЛС] 

sba

Морской Волк

Пост 20-Янв-2013 19:58 (спустя 34 минуты)

[Q] 

[Профиль]  [ЛС] 

sebitev

Морской Волк

Пост 20-Янв-2013 20:32 (спустя 33 минуты)

[Q] 

[Профиль]  [ЛС] 

gr71silver

Корсар

Пост 21-Янв-2013 19:15 (спустя 22 часа)

[Q] 

Спасибо!!
[Профиль]  [ЛС] 

Пост 25-Янв-2013 10:46 (спустя 3 дня)

Топик был перенесен из форума Новинки (HD|DVD|BD|TV|SAT|PDTV| - Rips) в форум Российские фильмы

ara1205
 

svmaxus

Шкипер

Пост 26-Янв-2013 17:39 (спустя 4 дня)

[Q] 

[Профиль]  [ЛС] 

Sergi4

Гроза морей

Пост 18-Фев-2013 14:24 (спустя 22 дня)

[Q] 

[Профиль]  [ЛС] 

Datchanin

Корсар

36

Пост 19-Фев-2013 19:18 (спустя 1 день 4 часа)

[Q] 


_________________
[Профиль]  [ЛС] 
Показать сообщения:    
Ответить на тему

Текущее время: Сегодня 23:22

Часовой пояс: GMT + 4



Вы не можете начинать темы
Вы не можете отвечать на сообщения
Вы не можете редактировать свои сообщения
Вы не можете удалять свои сообщения
Вы не можете голосовать в опросах
Вы не можете прикреплять файлы к сообщениям
Вы не можете скачивать файлы

▼ Вниз