ML
     
  Уважаемый Гость!
Вы можете поддержать проект и зарегистрироваться у наших партнеров - онлайн-стратегия MyLands. При регистрации в игре Вы получите код, который сможете активировать после регистрации на pirat.ca и получить 1000 дублонов.

Ваш код:
2a3da67fd641d69eeebb7cb965232435a70eaa24
 
     

Новогодний брак (Армен Адилханян) [1-2 серии из 2] [2012 г., Мелодрама, комедия, DVDRip]

Ответить на тему
 
Автор
Сообщение

Пост 23-Дек-2012 02:08

[Q] 

cergo

Гроза морей

-Новогодний брак [1-2 серия из 2]-- Производство: Россия, Berg Sound
Режиссер: Армен Адилханян
Жанр: Мелодрама, комедия
Год выпуска: 2012 г.
Продолжительность: 2 х ~ 00:46:04
Дата выхода DVD: 20 декабря 2012
В ролях: Андрей Соколов, Анна Невская, Ирина Медведева, Сесиль Свердлова, Олег Шкловский, Александр Песков, Карен Мартиросян, Наталья Громушкина, Людмила Гаврилова, Дмитрий Клепацкий, Элеонора Шашкова, Сергей Погосов, Джульетта Погосова, Наталия Медведева-Описание: У каждого свой Новый год. Дед Мороз, Снегурочка, хлопушки, игрушки, карнавал… нет на празднике одного главного героя - мамы. Достаточно незамысловатая, легкая комедия с хорошими актерами, забавными комиксами, снятая в нескольких декорациях. Местами наивно, местами смешно, но в общем «Новогодний брак» это хорошая доза новогоднего настроения для всей семьи.-Качество видео: DVDRip
Формат видео: AVI
Видео кодек: XviD
Аудио кодек: AC3
Видео: 720x400 (1.80:1), 25 fps, XviD MPEG-4 ~1661 kbps avg, 0.23 bit/pixel
Аудио: 48 kHz, AC3 Dolby Digital, 3/2 (L,C,R,l,r) + LFE ch, ~448 kbps
Cубтитры: отсутствуют
Общее
Полное имя : D:\Архив\ФИЛЬМЫ\Novogodnij.brak.2012.DVDRip\Novogodnij.brak.2012.DVDRip.1.serija.avi
Формат : AVI
Формат/Информация : Audio Video Interleave
Размер файла : 699 Мбайт
Продолжительность : 46 м.
Общий поток : 2120 Кбит/сек
Название фильма : Novogodnij.brak.2012.DVDRip.1.serija
Жанр : Comedy / Romance
Программа кодирования : VirtualDubMod 1.5.10.2 (build 2540/release)
Формат оригинала/Имя : Movie
Видео
Идентификатор : 0
Формат : MPEG-4 Visual
Профиль формата : Advanced [email protected]
Параметр BVOP формата : 2
Параметр QPel формата : Нет
Параметр GMC формата : Без точки перехода
Параметр матрицы формата : Выборочная
Идентификатор кодека : XVID
Идентификатор кодека/Подсказка : XviD
Продолжительность : 46 м.
Битрейт : 1662 Кбит/сек
Ширина : 720 пикселей
Высота : 400 пикселей
Соотношение сторон : 16:9
Частота кадров : 25,000 кадров/сек
Цветовое пространство : YUV
Субдискретизация насыщенности : 4:2:0
Битовая глубина : 8 бит
Тип развёртки : Прогрессивная
Метод сжатия : С потерями
Бит/(Пиксели*Кадры) : 0.231
Размер потока : 548 Мбайт (78%)
Библиотека кодирования : XviD 64
Аудио
Идентификатор : 1
Формат : AC-3
Формат/Информация : Audio Coding 3
Расширение режима : CM (complete main)
Идентификатор кодека : 2000
Продолжительность : 46 м.
Вид битрейта : Постоянный
Битрейт : 448 Кбит/сек
Каналы : 6 каналов
Расположение каналов : Front: L C R, Side: L R, LFE
Частота : 48,0 КГц
Битовая глубина : 16 бит
Метод сжатия : С потерями
Размер потока : 148 Мбайт (21%)
Выравнивание : Разделение по промежуткам
Продолжительность промежутка : 40 мс. (1,00 видеокадр)
Время предзагрузки промежутка : 500 мс.
Download / Скачать

Хотите скачать бесплатно? Зарегистрируйтесь на сайте (ссылка на регистрацию). Pirat.ca - самый быстрый торрент трекер в рунете!

Как скачивать  ·   Что такое торрент  ·   Рейтинг и ограничения



Последний раз редактировалось: cergo (2012-12-23 03:37), всего редактировалось 5 раз(а)

Пост 23-Дек-2012 03:44 (спустя 1 час 35 минут)

Топик был перенесен из форума Наше кино (Трюм) в форум Новинки (HD|DVD|BD|TV|SAT|PDTV| - Rips)

erchine
 

infiniti-r

Корсар

Пост 23-Дек-2012 21:40 (спустя 19 часов)

[Q] 

[Профиль]  [ЛС] 

cergo ®

Гроза морей

20059

Пост 23-Дек-2012 22:15 (спустя 34 минуты)

[Q] 

infiniti-r, aa az
[Профиль]  [ЛС] 

Aleks44

Гроза морей

Пост 24-Дек-2012 00:10 (спустя 1 час 55 минут)

[Q] 

Что что но в России умеют делать мелодрамы для любителей данной темы советую посмотреть
[Профиль]  [ЛС] 

Пост 25-Янв-2013 10:47 (спустя 1 месяц 1 день)

Топик был перенесен из форума Новинки (HD|DVD|BD|TV|SAT|PDTV| - Rips) в форум Российские фильмы

ara1205
 
Показать сообщения:    
Ответить на тему

Текущее время: Сегодня 01:11

Часовой пояс: GMT + 4



Вы не можете начинать темы
Вы не можете отвечать на сообщения
Вы не можете редактировать свои сообщения
Вы не можете удалять свои сообщения
Вы не можете голосовать в опросах
Вы не можете прикреплять файлы к сообщениям
Вы не можете скачивать файлы

▼ Вниз