ML
     
  Уважаемый Гость!
Вы можете поддержать проект и зарегистрироваться у наших партнеров - онлайн-стратегия MyLands. При регистрации в игре Вы получите код, который сможете активировать после регистрации на pirat.ca и получить 1000 дублонов.

Ваш код:
93dbf9fbdfa06c41d3b5a2c3921149ba36168c41
 
     

Майский дождь (Евгений Лаврентьев) [2012 г., Мелодрама, Комедия, DVDRip]

Ответить на тему
 
Автор
Сообщение

Пост 26-Дек-2012 11:54

[Q] 

kiryandr

Легенда

-Майский дождь-- Производство: Россия / Про100 Фильм
Режиссер: Евгений Лаврентьев
Жанр: Мелодрама, Комедия
Год выпуска: 2012 г.
Продолжительность: 01:26:22
Дата выхода DVD: 18 декабря 2012, «Lizard Cinema Trade»
В ролях: Артем Ткаченко, Данила Дунаев, Ирина Таранник, Равшана Куркова-Описание: В жизни Ольги происходит то самое событие, которого все девушки ждут годами: Марк делает ей предложение! Все происходит, как положено: розы, шампанское, назначение точной даты свадьбы, планы о путешествии, будущих детях… Но вдруг романтику момента нарушают удары в стену: недавно переехавший сосед устроил очередную вечеринку. «Сколько это может продолжаться?» — сетуют друг другу Ольга и Марк. Ольге приходит идея.
К соседу Денису приходит Марк с деловым предложением: продать им с Ольгой квартиру, а они ему подыщут новую — никаких хлопот и даже финансовая выгода. Но Денис не намерен соглашаться… Пара даже после отказа не хочет отступать: Ольга уже нафантазировала прекрасную большую квартиру и милых детишек! Удастся ли Ольге воплотить свою мечту в реальность или ей с Марком так и придется страдать из-за столь проблемного соседа?..-Сэмпл КиноПоиск
Качество видео: DVDRip
Формат видео: AVI
Видео кодек: XviD
Аудио кодек: AC3
Видео: 720 x 400, 2069 Кбит/сек, 25,000 кадр/сек
Аудио: AC3 2.0, 192 Кбит/сек, 48,0 КГц
Cубтитры: отсутствуют
Общее
Полное имя : Майский дождь.2012.DVDRip.avi
Формат : AVI
Формат/Информация : Audio Video Interleave
Размер файла : 1,37 Гбайт
Продолжительность : 1 ч. 26 м.
Общий поток : 2270 Кбит/сек
Программа кодирования : VirtualDubModRus 1.5.10.2 (build 2542/release)
Библиотека кодирования : VirtualDubMod build 2542/release
Видео
Идентификатор : 0
Формат : MPEG-4 Visual
Профиль формата : Advanced [email protected]
Параметр BVOP формата : 2
Параметр QPel формата : Нет
Параметр GMC формата : Без точки перехода
Параметр матрицы формата : Default (H.263)
Идентификатор кодека : XVID
Идентификатор кодека/Подсказка : XviD
Продолжительность : 1 ч. 26 м.
Битрейт : 2069 Кбит/сек
Ширина : 720 пикс.
Высота : 400 пикс.
Соотношение сторон : 16:9
Частота кадров : 25,000 кадр/сек
Цветовое пространство : YUV
Подвыборка цветности : 4:2:0
Битовая глубина : 8 бит
Тип развёртки : Прогрессивная
Метод сжатия : С потерями
Бит/(Пиксели*Кадры) : 0.287
Размер потока : 1,25 Гбайт (91%)
Библиотека кодирования : XviD 1.2.1 (UTC 2008-12-04)
Аудио
Идентификатор : 1
Формат : AC-3
Формат/Информация : Audio Coding 3
Расширение режима : CM (complete main)
Идентификатор кодека : 2000
Продолжительность : 1 ч. 26 м.
Вид битрейта : Постоянный
Битрейт : 192 Кбит/сек
Каналы : 2 канала
Расположение каналов : Front: L R
Частота : 48,0 КГц
Битовая глубина : 16 бит
Метод сжатия : С потерями
Размер потока : 119 Мбайт (8%)
Выравнивание : Разделение по промежуткам
Продолжительность промежутка : 40 мс. (1,00 видеокадр)
Время предзагрузки промежутка : 500 ms
Download / Скачать

Хотите скачать бесплатно? Зарегистрируйтесь на сайте (ссылка на регистрацию). Pirat.ca - самый быстрый торрент трекер в рунете!

Как скачивать  ·   Что такое торрент  ·   Рейтинг и ограничения

Пост 26-Дек-2012 12:15 (спустя 21 минута)

Топик был перенесен из форума Наше кино (Трюм) в форум Новинки (HD|DVD|BD|TV|SAT|PDTV| - Rips)

ara1205
 
Показать сообщения:    
Ответить на тему

Текущее время: Сегодня 20:18

Часовой пояс: GMT + 4



Вы не можете начинать темы
Вы не можете отвечать на сообщения
Вы не можете редактировать свои сообщения
Вы не можете удалять свои сообщения
Вы не можете голосовать в опросах
Вы не можете прикреплять файлы к сообщениям
Вы не можете скачивать файлы

▼ Вниз