ML
     
  Уважаемый Гость!
Вы можете поддержать проект и зарегистрироваться у наших партнеров - онлайн-стратегия MyLands. При регистрации в игре Вы получите код, который сможете активировать после регистрации на pirat.ca и получить 1000 дублонов.

Ваш код:
2fd4e750dd89cae3a36ea360f2b345ccfeb562d3
 
     

Пока ночь не разлучит (Борис Хлебников) [2012 г., комедия, HDRip]

Страницы :  1, 2  След.

Ответить на тему
 
Автор
Сообщение

Пост 27-Дек-2012 14:51

[Q] 

Jigsaw

 
-Пока ночь не разлучит-- Производство: Россия
Режиссер: Борис Хлебников
Жанр: комедия
Год выпуска: 2012 г.
Продолжительность: 01:03:19
Российская премьера: 12 октября 2012
Дата выхода DVD: 17 декабря 2012, «Новый Диск»
Дата выхода Blu-Ray: 21 января 2013, «Новый Диск»-В ролях: Александр Яценко, Евгений Сытый, Сахат Дурсунов, Алена Долецкая, Мария Шалаева
Александр Робак, Татьяна Токарева, Сергей Шнуров, Василий Уткин, Василий Бархатов-Описание: О чем на самом деле говорят мужчины и женщины? Фильм основан на реальных историях, подслушанных в одном из очень дорогих столичных ресторанов. Один безумный день из жизни заведения закручивает в хороводе знаменитых артистов, вальяжных бизнесменов, рублёвских содержанок и золотую молодёжь. Череда эпизодов скреплена историей двух официантов — толстого и тонкого. Оба они безнадёжно влюблены: один в свою жену, другой в чужую. А настоящая любовь рождается на кухне…- Качество видео: HDRip
Формат видео: AVI
Видео кодек: XviD
Аудио кодек: MP3
Видео: MPEG4, XviD, 720x400 (16:9), 24.000 fps, 2 313 Kbps (0.294 bit/pixel)
Аудио: Rus: MP3, 44.1 KHz, 2 ch, 128 Kbps, CBR
Cубтитры: отсутствуют
Общее
Полное имя : D:\Poka noch ne razluchit.HDRip.avi
Формат : AVI
Формат/Информация : Audio Video Interleave
Размер файла : 1,08 Гбайт
Продолжительность : 1 ч. 3 м.
Общий поток : 2451 Кбит/сек
Программа кодирования : VirtualDubModRus 1.5.10.2 (build 2540/release)
Библиотека кодирования : VirtualDubMod build 2540/release
Видео
Идентификатор : 0
Формат : MPEG-4 Visual
Профиль формата : Advanced [email protected]
Параметр BVOP формата : 1
Параметр QPel формата : Нет
Параметр GMC формата : Без точки перехода
Параметр матрицы формата : Выборочная
Идентификатор кодека : XVID
Идентификатор кодека/Подсказка : XviD
Продолжительность : 1 ч. 3 м.
Битрейт : 2313 Кбит/сек
Ширина : 720 пикселей
Высота : 400 пикселей
Соотношение сторон : 16:9
Частота кадров : 24,000 кадра/сек
Цветовое пространство : YUV
Субдискретизация насыщенности : 4:2:0
Битовая глубина : 8 бит
Тип развёртки : Прогрессивная
Метод сжатия : С потерями
Бит/(Пиксели*Кадры) : 0.335
Размер потока : 1,02 Гбайт (94%)
Библиотека кодирования : XviD 65
Аудио
Идентификатор : 1
Формат : MPEG Audio
Версия формата : Version 1
Профиль формата : Layer 3
Идентификатор кодека : 55
Идентификатор кодека/Подсказка : MP3
Продолжительность : 1 ч. 3 м.
Вид битрейта : Постоянный
Битрейт : 128 Кбит/сек
Каналы : 2 канала
Частота : 44,1 КГц
Метод сжатия : С потерями
Размер потока : 58,0 Мбайт (5%)
Выравнивание : Разделение по промежуткам
Продолжительность промежутка : 42 мс. (1,00 видеокадр)
Время предзагрузки промежутка : 500 мс.
Библиотека кодирования : LAME3.99
Настройки программы : -m s -V 4 -q 0 -lowpass 17 -b 128
Присутствует ненормативная лексика!!!
Download / Скачать

Хотите скачать бесплатно? Зарегистрируйтесь на сайте (ссылка на регистрацию). Pirat.ca - самый быстрый торрент трекер в рунете!

Как скачивать  ·   Что такое торрент  ·   Рейтинг и ограничения

Nekro666

Штурман

Пост 27-Дек-2012 14:58 (спустя 7 минут)

[Q] 

+Ещё и Шнур играет...ну не видел с ним ни одного хорошего фильма,хотя Ленинград лблю...хотя в Дженерейшен Пи которым испохабили книгу единственно достойно играл Шнур!
[Профиль]  [ЛС] 

Jigsaw ®

Пост 27-Дек-2012 15:11 (спустя 12 минут)

[Q] 

Nekro666, bk
 

erchine

44804

Пост 27-Дек-2012 15:13 (спустя 2 минуты)

[Q] 

Т - временная, звук:
Аудио: Rus: MP3, 44.1 KHz, 2 ch, 128 Kbps, CBR
-
[Профиль]  [ЛС] 

Пост 27-Дек-2012 15:16 (спустя 3 минуты)

Топик был перенесен из форума Наше кино (Трюм) в форум Новинки (HD|DVD|BD|TV|SAT|PDTV| - Rips)

erchine
 

Дядя Витя

53868

Пост 27-Дек-2012 15:36 (спустя 22 минуты)

[Q] 

Вася Уткин пристроился шабашить по киношкам ... тьфу-ты bm
За раздачку респектуйу от имени предновогоднего отечества ! ))


_________________
?
[Профиль]  [ЛС] 

dimonpa

Гроза морей

Пост 27-Дек-2012 15:44 (спустя 8 минут)

[Q] 

[Профиль]  [ЛС] 

kinstintin

Гроза морей

Пост 27-Дек-2012 19:21 (спустя 3 часа)

[Q] 


оценим...
[Профиль]  [ЛС] 

kisu

Гроза морей

Пост 27-Дек-2012 19:53 (спустя 32 минуты)

[Q] 

спасибо!заценим!
[Профиль]  [ЛС] 

cruzzel

Корсар

Пост 27-Дек-2012 20:02 (спустя 8 минут)

[Q] 


_________________
NEWSLOL.NET
[Профиль]  [ЛС] 

Kek$

Лоцман

Пост 27-Дек-2012 20:31 (спустя 29 минут)

[Q] 

Nekro666, Шнур зачетного глюка сыграл в теории запоя)
[Профиль]  [ЛС] 

SKIF797

Морской Волк

Пост 27-Дек-2012 21:02 (спустя 31 минута)

[Q] 

на любителя.разок глянуть можно.
[Профиль]  [ЛС] 

volkodav-10

Корсар

Пост 27-Дек-2012 23:43 (спустя 2 часа 40 минут)

[Q] 


_________________
Каждому своё.
[Профиль]  [ЛС] 

slavix

Корсар

Пост 28-Дек-2012 00:19 (спустя 35 минут)

[Q] 

херня. для любителей реальных историях, подслушанных в одном из очень дорогих столичных ресторанов.
[Профиль]  [ЛС] 

Voldun

Корсар

351

Пост 28-Дек-2012 02:26 (спустя 2 часа 7 минут)

[Q] 

Бред, зря время убил. Сюжета нет, логики нет, впечатление, что фильм снят на скорую руку в один дубль.
[Профиль]  [ЛС] 

iuhgyguyg

Лоцман

Пост 29-Дек-2012 11:14 (спустя 1 день 8 часов)

[Q] 

Фидьм гавно aa
[Профиль]  [ЛС] 

BOBROFF

Морской Волк

Пост 29-Дек-2012 23:53 (спустя 12 часов)

[Q] 

[Профиль]  [ЛС] 

Lejkin

Лоцман

Пост 30-Дек-2012 07:41 (спустя 7 часов)

[Q] 

арт-хаус
[Профиль]  [ЛС] 

IgorWOO

Корсар

Пост 07-Янв-2013 22:57 (спустя 8 дней)

[Q] 

Неплохо, каждый "столик" описывает реальные события разложения, загнивания общества в России. Супер, но концовку бы поумнее бы...но и так сойдет)
Шнур красава - все правильно сделал))
[Профиль]  [ЛС] 

makey

Штурман

Пост 08-Янв-2013 01:43 (спустя 2 часа 45 минут)

[Q] 

Полный бред!
[Профиль]  [ЛС] 

cruzzel

Корсар

Пост 08-Янв-2013 10:47 (спустя 9 часов)

[Q] 


_________________
NEWSLOL.NET
[Профиль]  [ЛС] 

Ya Fratkin

Морской Волк

Пост 09-Янв-2013 21:05 (спустя 1 день 10 часов)

[Q] 

[Профиль]  [ЛС] 

alexdubna

Морской Волк

Пост 10-Янв-2013 00:06 (спустя 3 часа)

[Q] 

[Профиль]  [ЛС] 

alexsey

Корсар

77

Пост 10-Янв-2013 07:36 (спустя 7 часов)

[Q] 

[Профиль]  [ЛС] 

keppi

Морской Волк

1896

Пост 10-Янв-2013 23:52 (спустя 16 часов)

[Q] 


_________________
Если нет своей цели в жизни, то будешь работать на того, у кого она есть.
[Профиль]  [ЛС] 

-Lemon-

Шкипер

Пост 11-Янв-2013 00:01 (спустя 8 минут)

[Q] 


Большинству смотреть последние 15мин фильма.
[Профиль]  [ЛС] 

Пост 31-Янв-2013 10:32 (спустя 20 дней)

Топик был перенесен из форума Новинки (HD|DVD|BD|TV|SAT|PDTV| - Rips) в форум Российские фильмы

ara1205
 

Sergi4

Гроза морей

Пост 18-Фев-2013 14:15 (спустя 1 месяц 7 дней)

[Q] 

[Профиль]  [ЛС] 

Datchanin

Корсар

36

Пост 19-Фев-2013 19:26 (спустя 1 день 5 часов)

[Q] 

Посмотрим!

_________________
[Профиль]  [ЛС] 

khvorovs

Шкипер

13

Пост 07-Мар-2013 17:52 (спустя 15 дней)

[Q] 

[Профиль]  [ЛС] 
Показать сообщения:    
Ответить на тему

Текущее время: Сегодня 14:13

Часовой пояс: GMT + 4



Вы не можете начинать темы
Вы не можете отвечать на сообщения
Вы не можете редактировать свои сообщения
Вы не можете удалять свои сообщения
Вы не можете голосовать в опросах
Вы не можете прикреплять файлы к сообщениям
Вы не можете скачивать файлы

▼ Вниз