ML
     
  Уважаемый Гость!
Вы можете поддержать проект и зарегистрироваться у наших партнеров - онлайн-стратегия MyLands. При регистрации в игре Вы получите код, который сможете активировать после регистрации на pirat.ca и получить 1000 дублонов.

Ваш код:
062e2babcc491faeb40d496cf9a498ac3df6cdd0
 
     

Последняя сказка Риты (Рената Литвинова) [2012 г., фентези, драма, детектив, DVDRip] [Лицензия]

Ответить на тему
 
Автор
Сообщение

Пост 28-Дек-2012 11:30

[Q] 

AGKRus36

-Последняя сказка Риты-- Производство: Россия / Запределье
Режиссер: Рената Литвинова
Жанр: фентези, драма, детектив
Год выпуска: 2012 г.
Продолжительность: 01:37:04
Российская премьера: 18 октября 2012, «Вольга»
В ролях: Митя Борисов, Лев Данилкин, Сергей Дебижев, Татьяна Друбич, Альбина Евтушевская, Алиса Хазанова, Николай Хомерики, Ольга Кузина, Рената Литвинова, Сати Спивакова-Описание: Три женщины, три состояния души, три вечные темы: любовь, смерть и поиски счастья. И один ангел смерти, сопровождающий в иной мир души тех, кто способен любить. История, разворачивающаяся на грани реальности и запределья.-Сэмпл КиноПоиск
Качество видео: DVDRip
Формат видео: AVI
Видео кодек: XviD
Аудио кодек: AC3
Видео: 720x400 (1.80:1), 25 fps, XviD build 50 ~1694 kbps avg, 0.23 bit/pixel
Аудио: 48 kHz, AC3 Dolby Digital, 3/2 (L,C,R,l,r) + LFE ch, ~448 kbps [Лицензия]
Cубтитры: отсутствуют
МКФ, 2012 год Победитель (1):
Приз газеты «Коммерсантъ Weekend»
Номинации (1):
Приз за лучший фильм - Золотой «Святой Георгий»
F:\Фильмы\Последняя сказка Риты\Poslednyaya.skazka.Rity.2012.O.DVDRip.avi
General
Complete name : F:\Фильмы\Последняя сказка Риты\Poslednyaya.skazka.Rity.2012.O.DVDRip.avi
Format : AVI
Format/Info : Audio Video Interleave
File size : 1.46 GiB
Duration : 1h 37mn
Overall bit rate : 2 153 Kbps
Writing application : VirtualDubModRus 1.5.10.2 (build 2542/release)
Original source form/Name : Movie
Video #0
ID : 0
Format : MPEG-4 Visual
Format profile : Advanced [email protected]
Format settings, BVOP : 2
Format settings, QPel : No
Format settings, GMC : No warppoints
Format settings, Matrix : Custom
Codec ID : XVID
Codec ID/Hint : XviD
Duration : 1h 37mn
Bit rate : 1 695 Kbps
Width : 720 pixels
Height : 400 pixels
Display aspect ratio : 16:9
Frame rate : 25.000 fps
Color space : YUV
Chroma subsampling : 4:2:0
Bit depth : 8 bits
Scan type : Progressive
Compression mode : Lossy
Bits/(Pixel*Frame) : 0.235
Stream size : 1.15 GiB (79%)
Writing library : XviD 1.2.1 (UTC 2008-12-04)
Audio #1
ID : 1
Format : AC-3
Format/Info : Audio Coding 3
Mode extension : CM (complete main)
Format settings, Endianness : Big
Codec ID : 2000
Duration : 1h 37mn
Bit rate mode : Constant
Bit rate : 448 Kbps
Channel(s) : 6 channels
Channel positions : Front: L C R, Side: L R, LFE
Sampling rate : 48.0 KHz
Bit depth : 16 bits
Compression mode : Lossy
Stream size : 311 MiB (21%)
Alignment : Split accross interleaves
Interleave, duration : 40 ms (1.00 video frame)
Interleave, preload duration : 500 ms
Download / Скачать

Хотите скачать бесплатно? Зарегистрируйтесь на сайте (ссылка на регистрацию). Pirat.ca - самый быстрый торрент трекер в рунете!

Как скачивать  ·   Что такое торрент  ·   Рейтинг и ограничения

Пост 28-Дек-2012 12:14 (спустя 43 минуты)

Топик был перенесен из форума Наше кино (Трюм) в форум Новинки (HD|DVD|BD|TV|SAT|PDTV| - Rips)

ara1205
 

kisu

Гроза морей

Пост 28-Дек-2012 12:25 (спустя 55 минут)

[Q] 

спасибо!давно ждали!
[Профиль]  [ЛС] 

dimonpa

Гроза морей

Пост 28-Дек-2012 18:03 (спустя 5 часов)

[Q] 

[Профиль]  [ЛС] 

krendel1973

Флибустьер

Пост 29-Дек-2012 03:02 (спустя 8 часов)

[Q] 

[Профиль]  [ЛС] 

ya3web

Лоцман

Пост 29-Дек-2012 03:36 (спустя 33 минуты)

[Q] 

За раздачу плюс, но фильм бред сивой кобылы!!! IMHO
[Профиль]  [ЛС] 

slavix

Корсар

Пост 29-Дек-2012 17:57 (спустя 14 часов)

[Q] 

[Профиль]  [ЛС] 

chibis

Шкипер

Пост 29-Дек-2012 20:26 (спустя 2 часа 28 минут)

[Q] 

там трэки от земфиры
[Профиль]  [ЛС] 

alexis164

Морской Волк

Пост 29-Дек-2012 23:19 (спустя 2 часа 53 минуты)

[Q] 

Прекрасная,волшебной красоты таинственная сказка с неподражаемой Ренатой,с великолепной музыкой Земфиры и совершенно особенной,присущей лишь фильмам Литвиновой,атмосферой. Конечно же,это кино не для всех,его нужно почувствовать, ощутить душой и проникнуться смыслом.
А я очень ждала этот фильм и ни капли не разочаровалась)
Огромное спасибо трекеру!
[Профиль]  [ЛС] 

vik238

Корсар

Пост 09-Янв-2013 00:25 (спустя 10 дней)

[Q] 

[Профиль]  [ЛС] 

sergein

Корсар

Пост 09-Янв-2013 00:58 (спустя 32 минуты)

[Q] 

[Профиль]  [ЛС] 

smartboy

Корсар

Пост 20-Янв-2013 18:31 (спустя 11 дней)

[Q] 

[Профиль]  [ЛС] 

sebitev

Морской Волк

Пост 20-Янв-2013 20:29 (спустя 1 час 58 минут)

[Q] 

[Профиль]  [ЛС] 

ursus

Морской Волк

Пост 21-Янв-2013 12:02 (спустя 15 часов)

[Q] 

[Профиль]  [ЛС] 

dark alchimist

Штурман

Пост 22-Янв-2013 22:19 (спустя 1 день 10 часов)

[Q] 

Рената+Земфира=Туфта
[Профиль]  [ЛС] 

tester83

Штурман

Пост 25-Янв-2013 12:47 (спустя 2 дня 14 часов)

[Q] 

Хрень! Даже до половины досмотреть сил не хватило... Такого бреда еще не было..(((
[Профиль]  [ЛС] 

Пост 31-Янв-2013 10:28 (спустя 5 дней)

Топик был перенесен из форума Новинки (HD|DVD|BD|TV|SAT|PDTV| - Rips) в форум Российские фильмы

ara1205
 

Sergi4

Гроза морей

Пост 18-Фев-2013 14:16 (спустя 24 дня)

[Q] 

[Профиль]  [ЛС] 

Shubnikoff

Морской Волк

Пост 20-Мар-2013 19:23 (спустя 1 месяц 2 дня)

[Q] 

[Профиль]  [ЛС] 

YuChe

Лоцман

Пост 06-Апр-2013 22:23 (спустя 17 дней)

[Q] 

Хорошее кино. Особенно Друбич, не зря Нику получила в этом году!

P.S.: Можете в премии добавить Друбич Ника 2012 за лучшую женскую роль второго плана.
[Профиль]  [ЛС] 

Nemetz

Корсар

Пост 11-Апр-2013 06:11 (спустя 4 дня)

[Q] 

292489Прекрасная,волшебной красоты таинственная сказка с неподражаемой Ренатой,с великолепной музыкой Земфиры и совершенно особенной,присущей лишь фильмам Литвиновой,атмосферой. Конечно же,это кино не для всех,его нужно почувствовать, ощутить душой и проникнуться смыслом.
А я очень ждала этот фильм и ни капли не разочаровалась)
Огромное спасибо трекеру!
Сразу видно любительницу женских писек du
[Профиль]  [ЛС] 
Показать сообщения:    
Ответить на тему

Текущее время: Сегодня 17:41

Часовой пояс: GMT + 4



Вы не можете начинать темы
Вы не можете отвечать на сообщения
Вы не можете редактировать свои сообщения
Вы не можете удалять свои сообщения
Вы не можете голосовать в опросах
Вы не можете прикреплять файлы к сообщениям
Вы не можете скачивать файлы

▼ Вниз