ML
     
  Уважаемый Гость!
Вы можете поддержать проект и зарегистрироваться у наших партнеров - онлайн-стратегия MyLands. При регистрации в игре Вы получите код, который сможете активировать после регистрации на pirat.ca и получить 1000 дублонов.

Ваш код:
2a3da67fd641d69eeebb7cb965232435a70eaa24
 
     

Зимний круиз (Игорь Нурисламов) [2012 г., Криминал, Приключения, SATRip]

Ответить на тему
 
Автор
Сообщение

Пост 30-Дек-2012 18:49

[Q] 

AGKRus36

-Зимний круиз-- Производство: Россия / Навигатор
Режиссер: Игорь Нурисламов
Жанр: Криминал, Приключения
Год выпуска: 2012 г.
Продолжительность: 01:31:36
В ролях: Александр Половцев, Евгений Дятлов, Георгий Штиль, Олег Андреев, Михаил Лучко, Вероника Норина, Юлия Соболевская, Альберт Барбарич, Борис Чердынцев, Александр Большаков, Александр Кудренко, Сергей Соболев, Михаил Долгинин, Татьяна Ткач, Владимир Баранов, Самвел Мужикян, Геннадий Меньшиков, Юрий Гальцев, Артем Анчуков, Владимир Глазков, Антон Хатеев, Илья Савельев, Андрей Мишин (III), Наталия Тарыничева, Егор Петренко, Андрей Грязнов, Роман Притула-Описание: Действие фильма разворачивается в новогодние праздники в Санкт-Петербурге. На этот раз полюбившемуся зрителям подполковнику Соловцу и его жене Юлии предстоит провести новогоднюю ночь на теплоходе, где ГУВД устраивает новогодний банкет и где ему должны вручить медаль «За доблесть в службе!». Праздник оборачивается трагедией – теплоход оказывается в руках террористов. Они требуют выкуп под угрозой взорвать судно вместе с заложниками. Соловцу единственному из находящихся там офицеров полиции удается освободить заложников и спастись самому. Ему помогают опыт и отвага. И, конечно, коллеги по убойному отделу.-Сэмпл КиноПоиск
Качество видео: SATRip
Формат видео: AVI
Видео кодек: XviD
Аудио кодек: MP3
Видео: 720x400 (16:9), 25 fps, XviD build 64 ~1491 kbps avg, 0.20 bit/pixel
Аудио: 48 kHz, MPEG Layer 3, 2 ch, ~128.00 kbps avg
Cубтитры: отсутствуют
F:\Фильмы\Зимний круиз\Zimnij.kruiz.2012.O.SATRip.avi
General
Complete name : F:\Фильмы\Зимний круиз\Zimnij.kruiz.2012.O.SATRip.avi
Format : AVI
Format/Info : Audio Video Interleave
File size : 1.04 GiB
Duration : 1h 31mn
Overall bit rate : 1 629 Kbps
Writing application : VirtualDubMod 1.5.10.2 (build 2540/release)
Writing library : VirtualDub build 32507/release
Video #0
ID : 0
Format : MPEG-4 Visual
Format profile : Advanced [email protected]
Format settings, BVOP : 2
Format settings, QPel : No
Format settings, GMC : No warppoints
Format settings, Matrix : Default (MPEG)
Codec ID : XVID
Codec ID/Hint : XviD
Duration : 1h 31mn
Bit rate : 1 491 Kbps
Width : 720 pixels
Height : 400 pixels
Display aspect ratio : 16:9
Frame rate : 25.000 fps
Color space : YUV
Chroma subsampling : 4:2:0
Bit depth : 8 bits
Scan type : Progressive
Compression mode : Lossy
Bits/(Pixel*Frame) : 0.207
Stream size : 977 MiB (92%)
Writing library : XviD 64
Audio #1
ID : 1
Format : MPEG Audio
Format version : Version 1
Format profile : Layer 3
Mode : Joint stereo
Mode extension : MS Stereo
Codec ID : 55
Codec ID/Hint : MP3
Duration : 1h 31mn
Bit rate mode : Constant
Bit rate : 128 Kbps
Channel(s) : 2 channels
Sampling rate : 48.0 KHz
Compression mode : Lossy
Stream size : 83.9 MiB (8%)
Alignment : Aligned on interleaves
Interleave, duration : 40 ms (1.00 video frame)
Interleave, preload duration : 504 ms
Download / Скачать

Хотите скачать бесплатно? Зарегистрируйтесь на сайте (ссылка на регистрацию). Pirat.ca - самый быстрый торрент трекер в рунете!

Как скачивать  ·   Что такое торрент  ·   Рейтинг и ограничения

Пост 30-Дек-2012 19:11 (спустя 22 минуты)

Топик был перенесен из форума Наше кино (Трюм) в форум Новинки (HD|DVD|BD|TV|SAT|PDTV| - Rips)

ara1205
 

AGKRus36 ®

37906

Пост 30-Дек-2012 22:32 (спустя 3 часа)

[Q] 


_________________
Мои раздачи
[Профиль]  [ЛС] 

vik238

Корсар

Пост 19-Янв-2013 22:01 (спустя 19 дней)

[Q] 

[Профиль]  [ЛС] 

smartboy

Корсар

Пост 20-Янв-2013 17:27 (спустя 19 часов)

[Q] 

[Профиль]  [ЛС] 

gr71silver

Корсар

Пост 21-Янв-2013 19:13 (спустя 1 день 1 час)

[Q] 

Спасибо!
[Профиль]  [ЛС] 

Пост 31-Янв-2013 10:28 (спустя 9 дней)

Топик был перенесен из форума Новинки (HD|DVD|BD|TV|SAT|PDTV| - Rips) в форум Российские фильмы

ara1205
 
Показать сообщения:    
Ответить на тему

Текущее время: Сегодня 01:13

Часовой пояс: GMT + 4



Вы не можете начинать темы
Вы не можете отвечать на сообщения
Вы не можете редактировать свои сообщения
Вы не можете удалять свои сообщения
Вы не можете голосовать в опросах
Вы не можете прикреплять файлы к сообщениям
Вы не можете скачивать файлы

▼ Вниз