ML
     
  Уважаемый Гость!
Вы можете поддержать проект и зарегистрироваться у наших партнеров - онлайн-стратегия MyLands. При регистрации в игре Вы получите код, который сможете активировать после регистрации на pirat.ca и получить 1000 дублонов.

Ваш код:
8b29d0f8cd61fe457e59e7df0aa1fab41a2b88b9
 
     

Новогодний переполох (Феликс Герчиков) [2012 г., комедия, SATRip]

Ответить на тему
 
Автор
Сообщение

Пост 31-Дек-2012 21:52

[Q] 

kiryandr

Легенда

-Новогодний переполох-- Производство: Кинокомпания DT production
Режиссер: Феликс Герчиков
Жанр: комедия
Год выпуска: 2012 г.
Продолжительность: 02:18:25
В ролях: Мария Порошина, Даниил Спиваковский, Луиза-Габриэла Бровина, Сергей Чирков, Галина Петрова, Евгений Воскресенский, Нонна Гришаева, Владимир Стержаков, Татьяна Кравченко, Павел Прилучный, Игорь Письменный, Владимир Добрынин, Алина Кизиярова, Николай Сахаров, Ксения Непотребная-Описание: С появлением молодого обаятельного мошенника Гарика в тихом провинциальном городке начинается настоящий Новогодний переполох с участием семейства Шишкиных, их родственников и коллег, деда Мороза и Снегурочки... и даже настоящего страуса.-Сэмпл КиноПоиск
Качество видео: SATRip
Формат видео: AVI
Видео кодек: XviD
Аудио кодек: MP3
Видео: 704x400, 1481 Кбит/сек, 25,000 кадров/сек
Аудио: МР3, 128 Кбит/сек, 48,0 КГц
Cубтитры: отсутствуют
Общее
Полное имя : Novogodni.perepoloh.2012.SATRip.avi
Формат : AVI
Формат/Информация : Audio Video Interleave
Размер файла : 1,56 Гбайт
Продолжительность : 2 ч. 18 м.
Общий поток : 1616 Кбит/сек
Программа кодирования : VirtualDubMod 1.5.4.1 (build 2178/release)
Библиотека кодирования : VirtualDubMod build 2178/release
Видео
Идентификатор : 0
Формат : MPEG-4 Visual
Профиль формата : Advanced [email protected]
Параметр BVOP формата : 1
Параметр QPel формата : Нет
Параметр GMC формата : Без точки перехода
Параметр матрицы формата : Выборочная
Идентификатор кодека : XVID
Идентификатор кодека/Подсказка : XviD
Продолжительность : 2 ч. 18 м.
Битрейт : 1481 Кбит/сек
Ширина : 704 пикселя
Высота : 400 пикселей
Соотношение сторон : 16:9
Частота кадров : 25,000 кадров/сек
Цветовое пространство : YUV
Субдискретизация насыщенности : 4:2:0
Битовая глубина : 8 бит
Тип развёртки : Прогрессивная
Метод сжатия : С потерями
Бит/(Пиксели*Кадры) : 0.210
Размер потока : 1,43 Гбайт (92%)
Библиотека кодирования : XviD 64
Аудио
Идентификатор : 1
Формат : MPEG Audio
Версия формата : Version 1
Профиль формата : Layer 3
Режим : Joint stereo
Идентификатор кодека : 55
Идентификатор кодека/Подсказка : MP3
Продолжительность : 2 ч. 18 м.
Вид битрейта : Постоянный
Битрейт : 128 Кбит/сек
Каналы : 2 канала
Частота : 48,0 КГц
Метод сжатия : С потерями
Размер потока : 127 Мбайт (8%)
Выравнивание : Соединение по промежуткам
Продолжительность промежутка : 80 мс. (2,00 видеокадра)
Время предзагрузки промежутка : 504 мс.
Библиотека кодирования : LAME3.97
Настройки программы : -m j -V 4 -q 2 -lowpass 17 -b 128
Download / Скачать

Хотите скачать бесплатно? Зарегистрируйтесь на сайте (ссылка на регистрацию). Pirat.ca - самый быстрый торрент трекер в рунете!

Как скачивать  ·   Что такое торрент  ·   Рейтинг и ограничения

Пост 31-Дек-2012 22:51 (спустя 58 минут)

Топик был перенесен из форума Наше кино (Трюм) в форум Новинки (HD|DVD|BD|TV|SAT|PDTV| - Rips)

genkasper
 

leonid.

Флибустьер

Пост 01-Янв-2013 03:23 (спустя 5 часов)

[Q] 

спасибо.
[Профиль]  [ЛС] 

lex-sr

Корсар

Пост 01-Янв-2013 11:25 (спустя 8 часов)

[Q] 

[Профиль]  [ЛС] 

GooN71

Лоцман

Пост 01-Янв-2013 16:05 (спустя 4 часа)

[Q] 


[Профиль]  [ЛС] 

kisu

Гроза морей

Пост 01-Янв-2013 16:24 (спустя 18 минут)

[Q] 

спасибо!
[Профиль]  [ЛС] 

Алоизий

Флибустьер

Пост 01-Янв-2013 17:45 (спустя 1 час 21 минута)

[Q] 

[Профиль]  [ЛС] 

Pilot8035

Штурман

Пост 01-Янв-2013 20:17 (спустя 2 часа 31 минута)

[Q] 

Что-то непонятно: то ли лыжи не едут, то ли пара сцен (чуть после середины и почти в конце) заменены (на более ранние) или вырезаны вообще... Или глючит меня? 1:36:50 замена и 2:06:25 «прыжок».
Фильм хороший, добрый. Советую для ненавязчивого семейного просмотра :)

_________________
Споры в интернете как олимпиада для дебилов: если даже ты выиграешь, ты всё равно дебил.
[Профиль]  [ЛС] 

Aleks44

Гроза морей

Пост 01-Янв-2013 22:39 (спустя 2 часа 22 минуты)

[Q] 

294236Что-то непонятно: то ли лыжи не едут, то ли пара сцен (чуть после середины и почти в конце) заменены (на более ранние) или вырезаны вообще... Или глючит меня? 1:36:50 замена и 2:06:25 «прыжок».
Фильм хороший, добрый. Советую для ненавязчивого семейного просмотра :)
Есть такое с середины в конец замена кадров, фильм реально хороший спокойный НОВОГОДНИЙ
[Профиль]  [ЛС] 

KIRST

Корсар

Пост 02-Янв-2013 00:48 (спустя 2 часа 9 минут)

[Q] 

Спасибо.
[Профиль]  [ЛС] 

olipov

Легенда

Пост 02-Янв-2013 18:33 (спустя 17 часов)

[Q] 

спасибо, посмотим )
[Профиль]  [ЛС] 

Sergunatt

Шкипер

Пост 03-Янв-2013 07:03 (спустя 12 часов)

[Q] 

Спасибо!
[Профиль]  [ЛС] 
Показать сообщения:    
Ответить на тему

Текущее время: Сегодня 21:26

Часовой пояс: GMT + 4



Вы не можете начинать темы
Вы не можете отвечать на сообщения
Вы не можете редактировать свои сообщения
Вы не можете удалять свои сообщения
Вы не можете голосовать в опросах
Вы не можете прикреплять файлы к сообщениям
Вы не можете скачивать файлы

▼ Вниз