ML
     
  Уважаемый Гость!
Вы можете поддержать проект и зарегистрироваться у наших партнеров - онлайн-стратегия MyLands. При регистрации в игре Вы получите код, который сможете активировать после регистрации на pirat.ca и получить 1000 дублонов.

Ваш код:
69f316be79867e9bf99caee9682d20bb11964507
 
     

День Додо (Ирина Гедрович) [2012 г., комедия, SATRip]

Ответить на тему
 
Автор
Сообщение

Пост 31-Дек-2012 22:15

[Q] 

kiryandr

Легенда

-День Додо-- Производство: DIXI Медиа
Режиссер: Ирина Гедрович
Жанр: комедия
Год выпуска: 2012 г.
Продолжительность: 01:23:09
Российская премьера: 31.12.2012
В ролях: Владимир Стержаков, Дарья Сагалова, Александр Бобров, Андрей Федорцов, Валерий Гаркалин, Семён Стругачев, Вилле Хаапасало, Альберт Филозов, Александр Леньков, Ольга Волкова, Даниил Спиваковский-Описание: Весь год сотрудники музея трудились не покладая рук: составляли картотеки, протирали чучела, собирали по кусочкам историческое наследие. В канун Нового года им, конечно, хотелось настоящего праздника, но научные работники вниманием не избалованы и в средствах стеснены.
Когда надежда на яркое торжество почти умерла, в музейную дверь постучали. Нежданные гости внезапно предложили устроить сотрудникам корпоратив с угощением, выпивкой и светомузыкой. Обалдевшие от радости музейщики даже предположить не могли, что меценаты – гангстеры, нанятые заокеанским коллекционером, а цель их – единственное сохранившееся чучело птицы додо.
План бандитов был идеален, но они не учли одного: помимо хилых ботаников в музее работал охранник Гена. Он давно мечтал стать героем и произвести впечатление на экскурсовода Машу, а это значит, что у злодеев — ни единого шанса!-Сэмпл КиноПоиск
Качество видео: SATRip
Формат видео: AVI
Видео кодек: XviD
Аудио кодек: MP3
Видео: 720х400, 1494 Кбит/сек, 25,000 кадров/сек
Аудио: MP3, (2ch) 128 Кбит/сек, 48,0 КГц
Cубтитры: отсутствуют
Общее
Полное имя : День Додо.avi
Формат : AVI
Формат/Информация : Audio Video Interleave
Размер файла : 967 Мбайт
Продолжительность : 1 ч. 22 м.
Общий поток : 1632 Кбит/сек
Программа кодирования : VirtualDubMod 1.5.10.2 (build 2540/release)
Библиотека кодирования : VirtualDub build 32507/release
Видео
Идентификатор : 0
Формат : MPEG-4 Visual
Профиль формата : Advanced [email protected]
Параметр BVOP формата : 2
Параметр QPel формата : Нет
Параметр GMC формата : Без точки перехода
Параметр матрицы формата : Default (MPEG)
Идентификатор кодека : XVID
Идентификатор кодека/Подсказка : XviD
Продолжительность : 1 ч. 22 м.
Битрейт : 1494 Кбит/сек
Ширина : 720 пикселей
Высота : 400 пикселей
Соотношение сторон : 16:9
Частота кадров : 25,000 кадров/сек
Цветовое пространство : YUV
Субдискретизация насыщенности : 4:2:0
Битовая глубина : 8 бит
Тип развёртки : Прогрессивная
Метод сжатия : С потерями
Бит/(Пиксели*Кадры) : 0.208
Размер потока : 885 Мбайт (92%)
Библиотека кодирования : XviD 64
Аудио
Идентификатор : 1
Формат : MPEG Audio
Версия формата : Version 1
Профиль формата : Layer 3
Режим : Joint stereo
Идентификатор кодека : 55
Идентификатор кодека/Подсказка : MP3
Продолжительность : 1 ч. 22 м.
Вид битрейта : Постоянный
Битрейт : 128 Кбит/сек
Каналы : 2 канала
Частота : 48,0 КГц
Метод сжатия : С потерями
Размер потока : 75,8 Мбайт (8%)
Выравнивание : Соединение по промежуткам
Продолжительность промежутка : 40 мс. (1,00 видеокадр)
Время предзагрузки промежутка : 504 мс.
Download / Скачать

Хотите скачать бесплатно? Зарегистрируйтесь на сайте (ссылка на регистрацию). Pirat.ca - самый быстрый торрент трекер в рунете!

Как скачивать  ·   Что такое торрент  ·   Рейтинг и ограничения

Пост 31-Дек-2012 22:50 (спустя 34 минуты)

Топик был перенесен из форума Наше кино (Трюм) в форум Новинки (HD|DVD|BD|TV|SAT|PDTV| - Rips)

genkasper
 

CKBO21

Лоцман

Пост 01-Янв-2013 11:12 (спустя 12 часов)

[Q] 

[Профиль]  [ЛС] 

lex-sr

Корсар

Пост 01-Янв-2013 11:27 (спустя 14 минут)

[Q] 

[Профиль]  [ЛС] 

BottleHunter

Шкипер

Пост 01-Янв-2013 11:35 (спустя 8 минут)

[Q] 

[Профиль]  [ЛС] 

rusnak777

Лоцман

Пост 01-Янв-2013 14:05 (спустя 2 часа 30 минут)

[Q] 

kiryandr,
[Профиль]  [ЛС] 

leonid.

Флибустьер

Пост 01-Янв-2013 20:33 (спустя 6 часов)

[Q] 

спасибо!
[Профиль]  [ЛС] 

Jigsaw

Пост 01-Янв-2013 20:37 (спустя 4 минуты)

[Q] 

 

Муравей

Корсар

Пост 01-Янв-2013 20:42 (спустя 4 минуты)

[Q] 

[Профиль]  [ЛС] 

kinstintin

Гроза морей

Пост 01-Янв-2013 22:18 (спустя 1 час 35 минут)

[Q] 

[Профиль]  [ЛС] 

KIRST

Корсар

Пост 02-Янв-2013 00:50 (спустя 2 часа 32 минуты)

[Q] 

Спасибо
[Профиль]  [ЛС] 

budilnik74

Морской Волк

Пост 02-Янв-2013 04:02 (спустя 3 часа)

[Q] 

[Профиль]  [ЛС] 

vik238

Корсар

Пост 13-Янв-2013 22:13 (спустя 11 дней)

[Q] 

[Профиль]  [ЛС] 

smartboy

Корсар

Пост 20-Янв-2013 17:15 (спустя 6 дней)

[Q] 

[Профиль]  [ЛС] 

Paseidon80

Морской Волк

Пост 20-Мар-2013 19:46 (спустя 2 месяца)

[Q] 

[Профиль]  [ЛС] 

Евгений Чередников

Морской Волк

Пост 13-Фев-2014 22:59 (спустя 10 месяцев 24 дня)

[Q] 

Спасибо!!! Раздающему респект!

_________________
[Профиль]  [ЛС] 
Показать сообщения:    
Ответить на тему

Текущее время: Сегодня 14:30

Часовой пояс: GMT + 4



Вы не можете начинать темы
Вы не можете отвечать на сообщения
Вы не можете редактировать свои сообщения
Вы не можете удалять свои сообщения
Вы не можете голосовать в опросах
Вы не можете прикреплять файлы к сообщениям
Вы не можете скачивать файлы

▼ Вниз