ML
     
  Уважаемый Гость!
Вы можете поддержать проект и зарегистрироваться у наших партнеров - онлайн-стратегия MyLands. При регистрации в игре Вы получите код, который сможете активировать после регистрации на pirat.ca и получить 1000 дублонов.

Ваш код:
2a3da67fd641d69eeebb7cb965232435a70eaa24
 
     

Вор (1997) DVDRip (Павел Чухрай) [1997 г., Драма, DVDRip]

Ответить на тему
 
Автор
Сообщение

Пост 01-Янв-2013 21:55

[Q] 

cergo

Гроза морей

-Вор-- Производство: Россия, Франция
Режиссер: Павел Чухрай
Жанр: Драма
Год выпуска: 1997 г.
Продолжительность: 01:33:45


Российская премьера: 31 августа 1997
В ролях: Владимир Машков, Екатерина Редникова, Миша Филипчук, Дима Чигарев, Юрий Беляев, Амалия Мордвинова, Лидия Савченко, Анатолий Кощеев, Аня Штукатурова, Эрвант Арзуманян, Наталья Позднякова, Ольга Пашкова, Людмила Селянская, Галина Петрова, Виктор Бунаков
-Описание: Действие картины разворачивается в двух эпохах - в послевоенное и в наше время. Главный герой фильма - сначала ребенок, потом - взрослый человек, военный. В 1952 году шестилетний Саня и его мать Катерина едут в поезде. Их случайный попутчик, офицер Анатолий очаровывает и Катю и Саню. Катя и Анатолий решают жить вместе. Сильный и добродушный Толян почти заменяет безотцовщине Сане отца. Он учит мальчика стоять за себя, вести себя по-мужски - так, как сам понимает мужественность и в соответствии с теми правилами, по которым живет. Но правила эти - правила "зоны". И вскоре выясняется, что Толян - вовсе не демобилизовавшийся офицер, а профессиональный вор. Отныне в мальчике борются любовь и отвращение, вспышки ненависти и привязанность к этому безусловно обаятельному и совершенно аморальному человеку...-Качество видео: DVDRip
Формат видео: AVI
Видео кодек: XviD
Аудио кодек: MP3
Видео: 624x480 (1.30:1), 25 fps, XviD build 50 ~965 kbps avg, 0.13 bit/pixel
Аудио: 48 kHz, MPEG Layer 3, 2 ch, ~128.00 kbps avg
Cубтитры: отсутствуют
Общее
Полное имя : D:\Архив\ФИЛЬМЫ\Vor.avi
Формат : AVI
Формат/Информация : Audio Video Interleave
Размер файла : 740 Мбайт
Продолжительность : 1 ч. 33 м.
Общий поток : 1103 Кбит/сек
Программа кодирования : VirtualDubMod 1.5.10.2 (build 2540/release)
Библиотека кодирования : VirtualDubMod build 2540/release
Видео
Идентификатор : 0
Формат : MPEG-4 Visual
Профиль формата : Advanced [email protected]
Параметр BVOP формата : 1
Параметр QPel формата : Нет
Параметр GMC формата : Без точки перехода
Параметр матрицы формата : Default (MPEG)
Идентификатор кодека : XVID
Идентификатор кодека/Подсказка : XviD
Продолжительность : 1 ч. 33 м.
Битрейт : 965 Кбит/сек
Ширина : 624 пикселя
Высота : 480 пикселей
Соотношение сторон : 1,300
Частота кадров : 25,000 кадров/сек
Цветовое пространство : YUV
Субдискретизация насыщенности : 4:2:0
Битовая глубина : 8 бит
Тип развёртки : Прогрессивная
Метод сжатия : С потерями
Бит/(Пиксели*Кадры) : 0.129
Размер потока : 647 Мбайт (88%)
Библиотека кодирования : XviD 1.2.1 (UTC 2008-12-04)
Аудио
Идентификатор : 1
Формат : MPEG Audio
Версия формата : Version 1
Профиль формата : Layer 3
Идентификатор кодека : 55
Идентификатор кодека/Подсказка : MP3
Продолжительность : 1 ч. 33 м.
Вид битрейта : Постоянный
Битрейт : 128 Кбит/сек
Каналы : 2 канала
Частота : 48,0 КГц
Метод сжатия : С потерями
Размер потока : 85,8 Мбайт (12%)
Выравнивание : Соединение по промежуткам
Продолжительность промежутка : 40 мс. (1,00 видеокадр)
Время предзагрузки промежутка : 504 мс.
Библиотека кодирования : LAME3.97
Настройки программы : -m s -V 4 -q 2 -lowpass 17 -b 128
Download / Скачать

Хотите скачать бесплатно? Зарегистрируйтесь на сайте (ссылка на регистрацию). Pirat.ca - самый быстрый торрент трекер в рунете!

Как скачивать  ·   Что такое торрент  ·   Рейтинг и ограничения

Пост 01-Янв-2013 22:14 (спустя 19 минут)

Топик был перенесен из форума Наше кино (Трюм) в форум Российские фильмы

erchine
 

and48

Корсар

169

Пост 02-Янв-2013 00:17 (спустя 2 часа 21 минута)

[Q] 

Хороший фильм и актеры классные!
[Профиль]  [ЛС] 

cergo ®

Гроза морей

20059

Пост 02-Янв-2013 03:05 (спустя 2 часа 47 минут)

[Q] 

and48, colonel96, sanchela9999, kronzvk, aa az
[Профиль]  [ЛС] 

colonel96

Морской Волк

Пост 05-Янв-2013 17:19 (спустя 3 дня)

[Q] 

Хороший фильм!
[Профиль]  [ЛС] 

sanchela9999

Корсар

Пост 05-Янв-2013 21:39 (спустя 4 часа)

[Q] 

Парни помогите скачать!!!!Отличный фильм!!! dg az
[Профиль]  [ЛС] 

kronzvk

Шкипер

Пост 06-Янв-2013 00:38 (спустя 2 часа 59 минут)

[Q] 

Давно хотел себе это фильм!!!
[Профиль]  [ЛС] 

kronzvk

Шкипер

Пост 06-Янв-2013 00:47 (спустя 8 минут)

[Q] 

ТОлько скачать невозможно(((((((
[Профиль]  [ЛС] 

superataman

Морской Волк

150

Пост 29-Мар-2015 21:21 (спустя 2 года 2 месяца)

[Q] 

хороший фильм Спасибо!!!

_________________
[Профиль]  [ЛС] 
Показать сообщения:    
Ответить на тему

Текущее время: Сегодня 01:13

Часовой пояс: GMT + 4



Вы не можете начинать темы
Вы не можете отвечать на сообщения
Вы не можете редактировать свои сообщения
Вы не можете удалять свои сообщения
Вы не можете голосовать в опросах
Вы не можете прикреплять файлы к сообщениям
Вы не можете скачивать файлы

▼ Вниз