ML
     
  Уважаемый Гость!
Вы можете поддержать проект и зарегистрироваться у наших партнеров - онлайн-стратегия MyLands. При регистрации в игре Вы получите код, который сможете активировать после регистрации на pirat.ca и получить 1000 дублонов.

Ваш код:
4855957e17f50c5c1236a0f8c4492b2b0bba00a0
 
     

Новогодняя жена (Светлана Музыченко) [2012 г., комедия, SATRip]

Страницы :  1, 2  След.

Ответить на тему
 
Автор
Сообщение

Пост 02-Янв-2013 22:55

[Q] 

cergo

Гроза морей

-Новогодняя жена«С кем Новый Год встретишь... С тем всю жизнь и проведешь!»-- Производство: Россия
Режиссер: Светлана Музыченко
Жанр: комедия
Год выпуска: 2012 г.
Продолжительность: 01:31:57
В ролях: Сергей Перегудов, Карина Андоленко, Алёна Яковлева, Анна Донченко, Александр Арсентьев, Антон Васильев, Алексей Гришин
-Описание: В самый разгар вечеринки в клубе Даша и Максим встречают друг друга...и просыпаются в одной пастели...Решив, что их свела сама судьба, герои принимаются строить идеальные, «правильные» отношения и...подают заявление в ЗАГС, предварительно заключив пари: если в течение месяца им удастся не просто прожить вместе, но и сохранить чувство влюбленности, дело закончится свадьбой.
Максим с Дашей изо всех сил пытаются стать настоящей парой, хотя жизнь постоянно проверяет их отношения на прочность. А тут и оставленные в прошлом «пассии» тоже внезапно воспылали чувствами к отринутым «половинкам».
Героям предстоит пережить немало смешных, а порой драматичных ситуаций, прежде чем они поймут, есть ли действительно между ними то самое, ради чего все затевалось - любовь...
- -Качество видео: SATRip
Формат видео: AVI
Видео кодек: DivX
Аудио кодек: MP3
Видео: 704x400 (1.76:1), 25 fps, ~1984 kbps avg, 0.28 bit/pixel
Аудио: 48 kHz, MPEG Layer 3, 2 ch, ~128.00 kbps avg
Cубтитры: отсутствуют
Общее
Полное имя : D:\Архив\ФИЛЬМЫ\Novogodnjaja.zhena.2012.avi
Формат : AVI
Формат/Информация : Audio Video Interleave
Профиль формата : OpenDML
Размер файла : 1,36 Гбайт
Продолжительность : 1 ч. 31 м.
Общий поток : 2119 Кбит/сек
Видео
Идентификатор : 0
Формат : MPEG-4 Visual
Профиль формата : [email protected]
Параметр BVOP формата : Нет
Параметр QPel формата : Нет
Параметр GMC формата : Без точки перехода
Параметр матрицы формата : Default (H.263)
Идентификатор кодека : DX50
Идентификатор кодека/Подсказка : DivX 5
Продолжительность : 1 ч. 31 м.
Битрейт : 1974 Кбит/сек
Ширина : 704 пикселя
Высота : 400 пикселей
Соотношение сторон : 16:9
Частота кадров : 25,000 кадров/сек
Цветовое пространство : YUV
Субдискретизация насыщенности : 4:2:0
Битовая глубина : 8 бит
Тип развёртки : Прогрессивная
Метод сжатия : С потерями
Бит/(Пиксели*Кадры) : 0.280
Размер потока : 1,27 Гбайт (93%)
Библиотека кодирования : XviD 1.2.1 (UTC 2008-12-04)
Аудио
Идентификатор : 1
Формат : MPEG Audio
Версия формата : Version 1
Профиль формата : Layer 3
Режим : Joint stereo
Расширение режима : MS Stereo
Идентификатор кодека : 55
Идентификатор кодека/Подсказка : MP3
Продолжительность : 1 ч. 31 м.
Вид битрейта : Постоянный
Битрейт : 128 Кбит/сек
Каналы : 2 канала
Частота : 48,0 КГц
Метод сжатия : С потерями
Размер потока : 84,2 Мбайт (6%)
Выравнивание : Соединение по промежуткам
Продолжительность промежутка : 24 мс. (0,60 видеокадр)
Библиотека кодирования : LAME3.98.2
Download / Скачать

Хотите скачать бесплатно? Зарегистрируйтесь на сайте (ссылка на регистрацию). Pirat.ca - самый быстрый торрент трекер в рунете!

Как скачивать  ·   Что такое торрент  ·   Рейтинг и ограничения



Последний раз редактировалось: cergo (2013-01-03 06:34), всего редактировалось 2 раз(а)

lex-sr

Корсар

Пост 03-Янв-2013 00:55 (спустя 1 час 59 минут)

[Q] 

[Профиль]  [ЛС] 

odyssey123

Флибустьер

Пост 03-Янв-2013 02:38 (спустя 1 час 43 минуты)

[Q] 

[Профиль]  [ЛС] 

Sergunatt

Шкипер

Пост 03-Янв-2013 07:56 (спустя 5 часов)

[Q] 

[Профиль]  [ЛС] 

Wolf111

57135

Пост 03-Янв-2013 11:22 (спустя 3 часа)

[Q] 

[Профиль]  [ЛС] 

Пост 03-Янв-2013 12:39 (спустя 1 час 16 минут)

Топик был перенесен из форума Наше кино (Трюм) в форум Новинки (HD|DVD|BD|TV|SAT|PDTV| - Rips)

erchine
 

demon-292

Корсар

Пост 03-Янв-2013 14:14 (спустя 2 часа 52 минуты)

[Q] 

[Профиль]  [ЛС] 

sergokov

Флибустьер

756

Пост 03-Янв-2013 14:26 (спустя 11 минут)

[Q] 

[Профиль]  [ЛС] 

hercules12345

Лоцман

Пост 03-Янв-2013 14:28 (спустя 2 минуты)

[Q] 

хороший фильм!
[Профиль]  [ЛС] 

askolomiec

Штурман

Пост 03-Янв-2013 15:22 (спустя 54 минуты)

[Q] 

[Профиль]  [ЛС] 

garryson

Морской Волк

10

Пост 03-Янв-2013 19:22 (спустя 3 часа)

[Q] 

[Профиль]  [ЛС] 

cergo ®

Гроза морей

20061

Пост 04-Янв-2013 01:09 (спустя 5 часов)

[Q] 

lex-sr, odyssey123, Sergunatt, Wolf111, demon-292, sergokov, hercules1234<wbr>5, askolomiec, garryson, recon811, Alexist, keppi, Kibersanya, aa az
[Профиль]  [ЛС] 

recon811

Шкипер

Пост 04-Янв-2013 14:55 (спустя 13 часов)

[Q] 

[Профиль]  [ЛС] 

Alexist

Лоцман

Пост 04-Янв-2013 20:40 (спустя 5 часов)

[Q] 

[thumb]СПАСИБО!!! [/thumb]
[Профиль]  [ЛС] 

keppi

Морской Волк

1896

Пост 06-Янв-2013 17:16 (спустя 1 день 20 часов)

[Q] 


_________________
Если нет своей цели в жизни, то будешь работать на того, у кого она есть.
[Профиль]  [ЛС] 

Kibersanya

Корсар

Пост 06-Янв-2013 18:38 (спустя 1 час 22 минуты)

[Q] 

Отличный фильм!
[Профиль]  [ЛС] 

serega_65

Штурман

Пост 11-Янв-2013 20:26 (спустя 5 дней)

[Q] 

[Профиль]  [ЛС] 

ff2h

Лоцман

Пост 11-Янв-2013 21:34 (спустя 1 час 8 минут)

[Q] 

[Профиль]  [ЛС] 

Anarez

Штурман

Пост 13-Янв-2013 04:04 (спустя 1 день 6 часов)

[Q] 

[Профиль]  [ЛС] 

савченко

Лоцман

Пост 15-Янв-2013 15:50 (спустя 2 дня 11 часов)

[Q] 

[Профиль]  [ЛС] 

svetly

Морской Волк

Пост 15-Янв-2013 21:31 (спустя 5 часов)

[Q] 

[Профиль]  [ЛС] 

helluin

Лоцман

Пост 16-Янв-2013 06:56 (спустя 9 часов)

[Q] 

Новогодняя добрая комедия! Люблю такие смотреть перед новым годом!
[Профиль]  [ЛС] 

tango07

Корсар

Пост 16-Янв-2013 11:57 (спустя 5 часов)

[Q] 

Спасибо!
[Профиль]  [ЛС] 

PI100LET2

Штурман

Пост 16-Янв-2013 13:15 (спустя 1 час 17 минут)

[Q] 

Глянем)
[Профиль]  [ЛС] 

vik238

Корсар

Пост 18-Янв-2013 18:41 (спустя 2 дня 5 часов)

[Q] 

[Профиль]  [ЛС] 

smartboy

Корсар

Пост 20-Янв-2013 17:11 (спустя 1 день 22 часа)

[Q] 

[Профиль]  [ЛС] 

citrus

Морской Волк

Пост 26-Янв-2013 11:23 (спустя 5 дней)

[Q] 

[Профиль]  [ЛС] 

Aleks44

Гроза морей

Пост 27-Янв-2013 21:45 (спустя 1 день 10 часов)

[Q] 

Больше можно приписать жанр мелодрама, в общем нормальный фильм
[Профиль]  [ЛС] 

bmf2000

Корсар

Пост 28-Янв-2013 15:31 (спустя 17 часов)

[Q] 

[Профиль]  [ЛС] 

VMatros

Легенда

4888

Пост 31-Янв-2013 13:38 (спустя 2 дня 22 часа)

[Q] 


_________________
Всё приходящее,а музыка Вечна !
[Профиль]  [ЛС] 
Показать сообщения:    
Ответить на тему

Текущее время: Сегодня 06:10

Часовой пояс: GMT + 4



Вы не можете начинать темы
Вы не можете отвечать на сообщения
Вы не можете редактировать свои сообщения
Вы не можете удалять свои сообщения
Вы не можете голосовать в опросах
Вы не можете прикреплять файлы к сообщениям
Вы не можете скачивать файлы

▼ Вниз