ML
     
  Уважаемый Гость!
Вы можете поддержать проект и зарегистрироваться у наших партнеров - онлайн-стратегия MyLands. При регистрации в игре Вы получите код, который сможете активировать после регистрации на pirat.ca и получить 1000 дублонов.

Ваш код:
93dbf9fbdfa06c41d3b5a2c3921149ba36168c41
 
     

Это моя собака (Александр Итыгилов (мл.)) [2012 г., мелодрама, SATRip]

Ответить на тему
 
Автор
Сообщение

Пост 05-Янв-2013 12:08

[Q] 

Jigsaw

 
-Это моя собака-- Производство: Россия
Режиссер: Александр Итыгилов (мл.)
Жанр: мелодрама
Год выпуска: 2012 г.
Продолжительность: 01:29:27
Российская премьера: 25 ноября 2012
В ролях: Мария Куликова, Андрей Чернышов, Денис Матросов, Геннадий Смирнов, Олеся Жураковская, Наталья Васько, Ольга Лукьяненко, Анатолий Зиновенко-Описание: Пять лет Ирина безропотно ждала, пока ее возлюбленный Костя разведется с женой и сделает ей предложение. Наконец долгожданный день настал: Константин приглашает Иру в ресторан и торжественно объявляет, что купил обручальные кольца. Вот только второе кольцо предназначается не ей, а дочке начальника...
У Ирины сложившаяся ситуация вызывает шок. Не в силах смириться с предательством любимого мужчины она решает наложить на себя руки. У входа в аптеку, куда бедная женщина отправляется за смертельной дозой снотворного, она встречает брошенную собаку. Узнав о том, что несчастную псину везут на живодерню, Ирина проникается к ней жалостью и решает забрать домой…- Качество видео: SATRip
Формат видео: AVI
Видео кодек: XviD
Аудио кодек: AC3
Видео: MPEG4, XviD, 704x368 (1.913), 25.000 fps, 2 124 Kbps (0.328 bit/pixel)
Аудио: Rus: AC-3, 48.0 KHz, 2 ch, 192 Kbps, CBR
Cубтитры: отсутствуют
Общее
Полное имя : D:\Jeto moja sobaka.SATRip.[pirat.ca].avi
Формат : AVI
Формат/Информация : Audio Video Interleave
Размер файла : 1,45 Гбайт
Продолжительность : 1 ч. 29 м.
Общий поток : 2326 Кбит/сек
Программа кодирования : VirtualDubMod 1.5.10.3 | www.virtualdub-fr.org || (build 2550/release)
Библиотека кодирования : VirtualDubMod build 2550/release
Видео
Идентификатор : 0
Формат : MPEG-4 Visual
Профиль формата : Advanced [email protected]
Параметр BVOP формата : 1
Параметр QPel формата : Нет
Параметр GMC формата : Без точки перехода
Параметр матрицы формата : Выборочная
Идентификатор кодека : XVID
Идентификатор кодека/Подсказка : XviD
Продолжительность : 1 ч. 29 м.
Битрейт : 2124 Кбит/сек
Ширина : 704 пикселя
Высота : 368 пикселей
Соотношение сторон : 1,913
Частота кадров : 25,000 кадров/сек
Цветовое пространство : YUV
Субдискретизация насыщенности : 4:2:0
Битовая глубина : 8 бит
Тип развёртки : Прогрессивная
Метод сжатия : С потерями
Бит/(Пиксели*Кадры) : 0.328
Размер потока : 1,33 Гбайт (91%)
Библиотека кодирования : XviD 65
Аудио
Идентификатор : 1
Формат : AC-3
Формат/Информация : Audio Coding 3
Расширение режима : CM (complete main)
Параметр Endianness формата : Big
Идентификатор кодека : 2000
Продолжительность : 1 ч. 29 м.
Вид битрейта : Постоянный
Битрейт : 192 Кбит/сек
Каналы : 2 канала
Расположение каналов : Front: L R
Частота : 48,0 КГц
Битовая глубина : 16 бит
Метод сжатия : С потерями
Размер потока : 123 Мбайт (8%)
Выравнивание : Разделение по промежуткам
Продолжительность промежутка : 40 мс. (1,00 видеокадр)
Время предзагрузки промежутка : 500 мс.
Download / Скачать

Хотите скачать бесплатно? Зарегистрируйтесь на сайте (ссылка на регистрацию). Pirat.ca - самый быстрый торрент трекер в рунете!

Как скачивать  ·   Что такое торрент  ·   Рейтинг и ограничения

Пост 05-Янв-2013 12:38 (спустя 30 минут)

Топик был перенесен из форума Наше кино (Трюм) в форум Российские фильмы

erchine
 

Znoi

Флибустьер

1163

Пост 05-Янв-2013 17:23 (спустя 5 часов)

[Q] 

,
[Профиль]  [ЛС] 

colonel96

Морской Волк

Пост 05-Янв-2013 18:51 (спустя 1 час 27 минут)

[Q] 

Как фильм то? Хотя кого спрашиваю - скачан 0 раз
[Профиль]  [ЛС] 
Показать сообщения:    
Ответить на тему

Текущее время: Сегодня 20:19

Часовой пояс: GMT + 4



Вы не можете начинать темы
Вы не можете отвечать на сообщения
Вы не можете редактировать свои сообщения
Вы не можете удалять свои сообщения
Вы не можете голосовать в опросах
Вы не можете прикреплять файлы к сообщениям
Вы не можете скачивать файлы

▼ Вниз