ML
     
  Уважаемый Гость!
Вы можете поддержать проект и зарегистрироваться у наших партнеров - онлайн-стратегия MyLands. При регистрации в игре Вы получите код, который сможете активировать после регистрации на pirat.ca и получить 1000 дублонов.

Ваш код:
2a3da67fd641d69eeebb7cb965232435a70eaa24
 
     

Крутой (Максим Демченко) [2012 г., Детектив, боевик, SATRip]

Страницы :  1, 2  След.

Ответить на тему
 
Автор
Сообщение

Пост 06-Янв-2013 01:23

[Q] 

Amethyst

-Крутой-- Год выпуска: 2012
Производство: Россия, Триикс Медиа
Жанр: Детектив, боевик
Продолжительность: 01:25:23
Режиссер: Максим Демченко
В ролях: Максим Дрозд, Анна Лутцева, Сергей Гамов, Михаил Сидаш, Михаил Полосухин, Виктор Смирнов
Описание: Каверин, некогда служивший в ОМОНе, начинает работать на себя – он перевозит грузы и никогда не спрашивает заказчика о том, что внутри. Однажды, доставив груз, Каверин видит, что в чемодане, который он вез – связанная девочка. Люди заказчика похитили ее и Каверин, сам не зная о содержимом посылки, доставил девочку главарю банды. За девочку требуют выкуп, саму же ее хотят убить, чтобы избавиться от свидетеля. Среди бандитов – Брыль – бывший сослуживец и враг Каверина. Каверин вступает в схватку с бандитами, ему удается отбить у них девочку, и скрыться. Каверин, преследуемый бандитами, идущими по пятам, начинает поиск родителей девочки.

Сэмпл
Источник/Качество: SATRip
Формат: AVI
Видео кодек: XviD
Аудио кодек: MP3
Видео: XviD, 720x384, 25.000 fps, 1845 Kbit/s
Аудио: MP3, 48000 Hz, 2 каналов, 192 kbit/s
Общее
Полное имя : D:\Торенты\Krutoi.2012.SATRip..avi
Формат : AVI
Формат/Информация : Audio Video Interleave
Размер файла : 1,22 Гбайт
Продолжительность : 1 ч. 25 м.
Общий поток : 2047 Кбит/сек
Название фильма : K
Программа кодирования : VirtualDubMod 1.5.10.3 | www.virtualdub-fr.org || (build 2550/release)
Видео
Идентификатор : 0
Формат : MPEG-4 Visual
Профиль формата : Advanced [email protected]
Параметр BVOP формата : 2
Параметр QPel формата : Нет
Параметр GMC формата : Без точки перехода
Параметр матрицы формата : Выборочная
Идентификатор кодека : XVID
Идентификатор кодека/Подсказка : XviD
Продолжительность : 1 ч. 25 м.
Битрейт : 1845 Кбит/сек
Ширина : 720 пикселей
Высота : 384 пикселя
Соотношение сторон : 1,85:1
Частота кадров : 25,000 кадров/сек
Цветовое пространство : YUV
Субдискретизация насыщенности : 4:2:0
Битовая глубина : 8 бит
Тип развёртки : Прогрессивная
Метод сжатия : С потерями
Бит/(Пиксели*Кадры) : 0.267
Размер потока : 1,10 Гбайт (90%)
Библиотека кодирования : XviD 1.2.1 (UTC 2008-12-04)
Аудио
Идентификатор : 1
Формат : MPEG Audio
Версия формата : Version 1
Профиль формата : Layer 3
Режим : Joint stereo
Расширение режима : MS Stereo
Идентификатор кодека : 55
Идентификатор кодека/Подсказка : MP3
Продолжительность : 1 ч. 25 м.
Вид битрейта : Постоянный
Битрейт : 192 Кбит/сек
Каналы : 2 канала
Частота : 48,0 КГц
Метод сжатия : С потерями
Размер потока : 117 Мбайт (9%)
Выравнивание : Соединение по промежуткам
Продолжительность промежутка : 40 мс. (1,00 видеокадр)
Время предзагрузки промежутка : 504 мс.
Библиотека кодирования : LAME3.98r
Настройки программы : -m j -V 4 -q 2 -lowpass 18.6 -b 192
Download / Скачать

Хотите скачать бесплатно? Зарегистрируйтесь на сайте (ссылка на регистрацию). Pirat.ca - самый быстрый торрент трекер в рунете!

Как скачивать  ·   Что такое торрент  ·   Рейтинг и ограничения

pwsnik

Гроза морей

Пост 06-Янв-2013 07:50 (спустя 6 часов)

[Q] 

Они че "Перевозчика" насмотрелись ?
[Профиль]  [ЛС] 

polozm

Легенда

Пост 06-Янв-2013 09:53 (спустя 2 часа 3 минуты)

[Q] 

297394Они че "Перевозчика" насмотрелись ?
bj bj bj ag er Такое смотреть это себя не уважать.Хотя людям нечего делать сейчас...Праздниикии bq

_________________
mac mini -2.0 GHz Intel Core i7/ 8 GB DDR3. /Intel HD 3000(512mb)OS X 10.9 Mavericks
[Профиль]  [ЛС] 

dimonpa

Гроза морей

Пост 06-Янв-2013 11:44 (спустя 1 час 51 минута)

[Q] 

[Профиль]  [ЛС] 

kinstintin

Гроза морей

Пост 06-Янв-2013 13:02 (спустя 1 час 17 минут)

[Q] 

[Профиль]  [ЛС] 

Horek35

Лоцман

Пост 06-Янв-2013 13:26 (спустя 23 минуты)

[Q] 

Зато на третьем скрине - СИСЬКИ!!!!!!!)))))
[Профиль]  [ЛС] 

recon811

Шкипер

Пост 06-Янв-2013 14:11 (спустя 45 минут)

[Q] 

[Профиль]  [ЛС] 

vovan200976

Флибустьер

Пост 06-Янв-2013 14:31 (спустя 19 минут)

[Q] 

[Профиль]  [ЛС] 

oper73

Морской Волк

Пост 06-Янв-2013 14:59 (спустя 27 минут)

[Q] 

ААААА!!!!Мама дарагая-этож "рашен перевозчик"!!! bj Ржунимагу!!!
[Профиль]  [ЛС] 

Kibersanya

Корсар

Пост 06-Янв-2013 18:35 (спустя 3 часа)

[Q] 

[Профиль]  [ЛС] 

Otezz

Шкипер

Пост 06-Янв-2013 18:58 (спустя 22 минуты)

[Q] 

Русский "перевозчик" не русский а качают.
[Профиль]  [ЛС] 

got70

Легенда

752

Пост 06-Янв-2013 20:10 (спустя 1 час 11 минут)

[Q] 

bp Ничего вы не понимаете ю Русский перевозчик-это круто bp

_________________
Добро непременно победит зло!Непременно...Затем поставит на колени,и зверски УБЬЁТ!
[Профиль]  [ЛС] 

chis2k2

Лоцман

Пост 06-Янв-2013 22:52 (спустя 2 часа 42 минуты)

[Q] 

да уж :))) скажите, а почему в Вашем творчестве так много ремейков ?? Меня раздражает Ваша розовая кофточка, сиськи и микрофон. Встала и ушла отсюда. :)))))) МЕГАЛОЛ :)))))))) Перевозчик нервно курит в сторонке по сравнению с этим шедевром. Смеялся весь фильм :))))))))
[Профиль]  [ЛС] 

gf33h

Пост 06-Янв-2013 23:01 (спустя 8 минут)

[Q] 

Режиссер выпей йаду
[Профиль]  [ЛС] 

kinstintin

Гроза морей

Пост 07-Янв-2013 00:35 (спустя 1 час 34 минуты)

[Q] 

а качество фильма - так себе...
много кубиков, звук не совпадает с картинкой и так по мелочи
посмотреть один раз... ошибся - послушать
[Профиль]  [ЛС] 

slavix

Корсар

Пост 07-Янв-2013 14:03 (спустя 13 часов)

[Q] 

не крутой, а отстой
[Профиль]  [ЛС] 

Selim

Корсар

Пост 07-Янв-2013 21:24 (спустя 7 часов)

[Q] 

Ни ума ни фантазии
[Профиль]  [ЛС] 

kisu

Гроза морей

Пост 07-Янв-2013 21:31 (спустя 6 минут)

[Q] 

да уж!!!
[Профиль]  [ЛС] 

tango07

Корсар

Пост 07-Янв-2013 23:09 (спустя 1 час 38 минут)

[Q] 

И шо це таке?
[Профиль]  [ЛС] 

Ya Fratkin

Морской Волк

Пост 09-Янв-2013 21:12 (спустя 1 день 22 часа)

[Q] 

[Профиль]  [ЛС] 

yru1886

Штурман

Пост 10-Янв-2013 22:45 (спустя 1 день 1 час)

[Q] 

[Профиль]  [ЛС] 

Anti1000

Шкипер

Пост 11-Янв-2013 01:49 (спустя 3 часа)

[Q] 

Страшно даже качать такую пародию
[Профиль]  [ЛС] 

Skala973

Корсар

Пост 11-Янв-2013 02:55 (спустя 1 час 6 минут)

[Q] 

Мда. Осталось только понять, как же эти америкосы, так умудрились ремейк на фильм "Крутой" снять, и назвать его перевозчиком, ещё до снятия фильма "Крутой".
[Профиль]  [ЛС] 

lidi

Шкипер

Пост 17-Янв-2013 18:27 (спустя 6 дней)

[Q] 

[Профиль]  [ЛС] 

savatey

Корсар

Пост 17-Янв-2013 19:09 (спустя 42 минуты)

[Q] 

Слов нет .

_________________
[Профиль]  [ЛС] 

Дон Кихот

Корсар

Пост 18-Янв-2013 23:55 (спустя 1 день 4 часа)

[Q] 

307613Слов нет .
Как это нет , есть : Супер мега крутой блокбастер
[Профиль]  [ЛС] 

smartboy

Корсар

Пост 20-Янв-2013 17:13 (спустя 1 день 17 часов)

[Q] 

[Профиль]  [ЛС] 

gr71silver

Корсар

Пост 21-Янв-2013 19:11 (спустя 1 день 1 час)

[Q] 

Спасибо!!
[Профиль]  [ЛС] 

sergey718

Корсар

Пост 02-Мар-2013 09:00 (спустя 1 месяц 11 дней)

[Q] 

Фильм посмотрел.
[Профиль]  [ЛС] 

khvorovs

Шкипер

13

Пост 07-Мар-2013 17:54 (спустя 5 дней)

[Q] 

[Профиль]  [ЛС] 
Показать сообщения:    
Ответить на тему

Текущее время: Сегодня 01:17

Часовой пояс: GMT + 4



Вы не можете начинать темы
Вы не можете отвечать на сообщения
Вы не можете редактировать свои сообщения
Вы не можете удалять свои сообщения
Вы не можете голосовать в опросах
Вы не можете прикреплять файлы к сообщениям
Вы не можете скачивать файлы

▼ Вниз