ML
     
  Уважаемый Гость!
Вы можете поддержать проект и зарегистрироваться у наших партнеров - онлайн-стратегия MyLands. При регистрации в игре Вы получите код, который сможете активировать после регистрации на pirat.ca и получить 1000 дублонов.

Ваш код:
156f85568ae63e45e07ac461c96a83ba1a876b0a
 
     

Удача напрокат (Дмитрий Сорокин) [2012 г., комедия, мелодрама, SATRip]

Ответить на тему
 
Автор
Сообщение

Пост 08-Янв-2013 12:10

[Q] 

cergo

Гроза морей

-Удача напрокат«Главное в жизни не мистические предсказания и волшебные амулеты...»-- Производство: Россия, Star Media
Режиссер: Дмитрий Сорокин
Жанр: комедия, мелодрама
Год выпуска: 2012 г.
Продолжительность: 01:29:26

Российская премьера: 4 января 2013 (Домашний)
В ролях: Ирина Медведева, Дмитрий Богданов, Юрий Ваксман, Оксана Скакун, Ирина Пулина, Константин Третьяков, Максим Пинскер, Константин Новиков
-Описание: В жизни Кристины все прекрасно: жених - красавец, богатый наследник Николай, отличная работа в одном из самых крупных банков страны. Через пару месяцев Кристине исполнится тридцать. Кристина ждет дня рождения с особым трепетом: когда-то старая гадалка сказала ей, что если она встретит свое 30-летие успешной, то и дальше ей будет сопутствовать удача, а если нет, то ходить Кристине одинокой и бедной до конца своих дней. На память гадалка дала девушке медальон, который должен был охранять ее от невзгод. Но по роковому стечению обстоятельств, коллега Кристины, неудачник Сергей, разбивает ее счастливый медальон. И сказочная жизнь Кристины превращается в ад: она заваливает проект, и застает жениха с другой женщиной. Кристине предстоит пройти через массу неприятностей, чтобы понять, что главное в жизни не мистические предсказания и волшебные амулеты, а близкие люди, которые ее окружают.
-Качество видео: SATRip
Формат видео: AVI
Видео кодек: XviD
Аудио кодек: MP3
Видео: 720x400 (1.80:1), 25 fps, XviD build 64 ~1989 kbps avg, 0.28 bit/pixel
Аудио: 48 kHz, MPEG Layer 3, 2 ch, ~192.00 kbps avg

Cубтитры: отсутствуют
Общее
Полное имя : D:\Архив\ФИЛЬМЫ\Удача напрокат.2012.SATRip.avi
Формат : AVI
Формат/Информация : Audio Video Interleave
Размер файла : 1,37 Гбайт
Продолжительность : 1 ч. 29 м.
Общий поток : 2189 Кбит/сек
Программа кодирования : VirtualDubMod 1.5.4.1 (build 2178/release)
Библиотека кодирования : VirtualDubMod build 2178/release
Видео
Идентификатор : 0
Формат : MPEG-4 Visual
Профиль формата : Advanced [email protected]
Параметр BVOP формата : Нет
Параметр QPel формата : Нет
Параметр GMC формата : Без точки перехода
Параметр матрицы формата : Выборочная
Идентификатор кодека : XVID
Идентификатор кодека/Подсказка : XviD
Продолжительность : 1 ч. 29 м.
Битрейт : 1989 Кбит/сек
Ширина : 720 пикселей
Высота : 400 пикселей
Соотношение сторон : 16:9
Частота кадров : 25,000 кадров/сек
Цветовое пространство : YUV
Субдискретизация насыщенности : 4:2:0
Битовая глубина : 8 бит
Тип развёртки : Прогрессивная
Метод сжатия : С потерями
Бит/(Пиксели*Кадры) : 0.276
Размер потока : 1,24 Гбайт (91%)
Библиотека кодирования : XviD 64
Аудио
Идентификатор : 1
Формат : MPEG Audio
Версия формата : Version 1
Профиль формата : Layer 3
Режим : Joint stereo
Расширение режима : MS Stereo
Идентификатор кодека : 55
Идентификатор кодека/Подсказка : MP3
Продолжительность : 1 ч. 29 м.
Вид битрейта : Постоянный
Битрейт : 192 Кбит/сек
Каналы : 2 канала
Частота : 48,0 КГц
Метод сжатия : С потерями
Размер потока : 123 Мбайт (9%)
Выравнивание : Соединение по промежуткам
Продолжительность промежутка : 80 мс. (2,00 видеокадра)
Время предзагрузки промежутка : 504 мс.
Библиотека кодирования : LAME3.98r
Настройки программы : -m j -V 4 -q 2 -lowpass 18.6 -b 192
Download / Скачать

Хотите скачать бесплатно? Зарегистрируйтесь на сайте (ссылка на регистрацию). Pirat.ca - самый быстрый торрент трекер в рунете!

Как скачивать  ·   Что такое торрент  ·   Рейтинг и ограничения

Пост 08-Янв-2013 13:20 (спустя 1 час 10 минут)

Топик был перенесен из форума Наше кино (Трюм) в форум Новинки (HD|DVD|BD|TV|SAT|PDTV| - Rips)

ara1205
 

seldays

Корсар

Пост 08-Янв-2013 22:18 (спустя 10 часов)

[Q] 

Позитивный фильм = 4++!!

_________________
[Профиль]  [ЛС] 

Kibersanya

Корсар

Пост 09-Янв-2013 10:52 (спустя 12 часов)

[Q] 

[Профиль]  [ЛС] 

cergo ®

Гроза морей

20029

Пост 09-Янв-2013 17:17 (спустя 6 часов)

[Q] 

seldays, Kibersanya, Madarashi, aa az
[Профиль]  [ЛС] 

Madarashi

Корсар

Пост 09-Янв-2013 18:11 (спустя 54 минуты)

[Q] 

[Профиль]  [ЛС] 

Бомс

Морской Волк

Пост 15-Янв-2013 11:22 (спустя 5 дней)

[Q] 

Скачаю и остаюсь на раздаче.. Люблю позитивные финалы!! ))) ))

_________________
Всё будет зашибись! Только не стоит этому мешать!!!
[Профиль]  [ЛС] 

tango07

Корсар

Пост 15-Янв-2013 13:18 (спустя 1 час 56 минут)

[Q] 

[Профиль]  [ЛС] 

svetly

Морской Волк

Пост 15-Янв-2013 21:15 (спустя 7 часов)

[Q] 

[Профиль]  [ЛС] 

recon811

Шкипер

Пост 15-Янв-2013 21:22 (спустя 7 минут)

[Q] 

[Профиль]  [ЛС] 

Jek@

Легенда

Пост 18-Янв-2013 02:08 (спустя 2 дня 4 часа)

[Q] 

[Профиль]  [ЛС] 
Показать сообщения:    
Ответить на тему

Текущее время: Сегодня 21:57

Часовой пояс: GMT + 4



Вы не можете начинать темы
Вы не можете отвечать на сообщения
Вы не можете редактировать свои сообщения
Вы не можете удалять свои сообщения
Вы не можете голосовать в опросах
Вы не можете прикреплять файлы к сообщениям
Вы не можете скачивать файлы

▼ Вниз