ML
     
  Уважаемый Гость!
Вы можете поддержать проект и зарегистрироваться у наших партнеров - онлайн-стратегия MyLands. При регистрации в игре Вы получите код, который сможете активировать после регистрации на pirat.ca и получить 1000 дублонов.

Ваш код:
8b29d0f8cd61fe457e59e7df0aa1fab41a2b88b9
 
     

Отдельное поручение (Дмитрий Аверин (II)) [2012 г., Детектив, криминальный фильм, SATRip]

Ответить на тему
 
Автор
Сообщение

Пост 08-Янв-2013 16:11

[Q] 

cergo

Гроза морей

-Отдельное поручение-- Производство: Россия, “Форвард-Фильм”, “Панорама”
Режиссер: Дмитрий Аверин (II)
Жанр: Детектив, криминальный фильм
Год выпуска: 2012 г.
Продолжительность: 01:26:43
В ролях: Всеволод Цурило, Руслан Кацагаджиев, Анна Некрасова, Александра Сыдорук, Дмитрий Александров (II), Владимир Бирюков, Евгений Березкин, Иван Батерев, Антон Чернов, Ольга Одинцова, Илья Савельев, Олег Гаянов, Владимир Соснин (III), Сергей Змигеровский, Владимир Заморин
-Описание: Перегоняя по отдельному поручению следователя автомобиль - вещественное доказательство в одном уголовном деле - из Перми в Петербург, Паша Арнаутов оказывается в самом эпицентре противостояния двух бандитских группировок. "Хозяин" посёлка Стастливое, через который пролегал путь арнаутовского "Мерседеса", по прозвищу Цепованный приказывает своим людям напасть на Пашу и отнять у него машину, в которой случайная попутчица Арнаутова могла тайком спрятать флешку с компроматом на Цепованного и его подручных. Несмотря на уговоры местного сторожила Кушнарёва, Паша решает во что бы то ни стало вернуть свою машину и освободить находящуюся в плену у бандитов сотрудницу ФСБ Настю, хозяйку пропавшей флешки. В бой с уголовниками Паше приходится идти одному - только он готов бросить им вызов.
-Качество видео: SATRip
Формат видео: AVI
Видео кодек: DivX
Аудио кодек: MP3
Видео: 704x384 (1.83:1), 25 fps, DivX Codec 6.8.5/6.9.1 ~2098 kbps avg, 0.31 bit/pixel
Аудио: 48 kHz, MPEG Layer 3, 1 ch, ~128.00 kbps avg
Cубтитры: отсутствуют
Общее
Полное имя : D:\Архив\ФИЛЬМЫ\Otdelnoe.poruchenie.2012.DivX.SATRip.avi
Формат : AVI
Формат/Информация : Audio Video Interleave
Размер файла : 1,35 Гбайт
Продолжительность : 1 ч. 26 м.
Общий поток : 2236 Кбит/сек
Библиотека кодирования : Boilsoft AVI tool build 1/release
Видео
Идентификатор : 0
Формат : MPEG-4 Visual
Параметр BVOP формата : Нет
Параметр QPel формата : Нет
Параметр GMC формата : Без точки перехода
Параметр матрицы формата : Default (H.263)
Идентификатор кодека : DX50
Идентификатор кодека/Подсказка : DivX 5
Продолжительность : 1 ч. 26 м.
Битрейт : 2098 Кбит/сек
Ширина : 704 пикселя
Высота : 384 пикселя
Соотношение сторон : 16:9
Частота кадров : 25,000 кадров/сек
Цветовое пространство : YUV
Субдискретизация насыщенности : 4:2:0
Битовая глубина : 8 бит
Тип развёртки : Прогрессивная
Метод сжатия : С потерями
Бит/(Пиксели*Кадры) : 0.310
Размер потока : 1,27 Гбайт (94%)
Библиотека кодирования : DivX 6.8.5 (UTC 2009-08-20)
Аудио
Идентификатор : 1
Формат : MPEG Audio
Версия формата : Version 1
Профиль формата : Layer 3
Идентификатор кодека : 55
Идентификатор кодека/Подсказка : MP3
Продолжительность : 1 ч. 26 м.
Вид битрейта : Постоянный
Битрейт : 128 Кбит/сек
Каналы : 1 канал
Частота : 48,0 КГц
Метод сжатия : С потерями
Размер потока : 79,4 Мбайт (6%)
Выравнивание : Разделение по промежуткам
Продолжительность промежутка : 40 мс. (1,00 видеокадр)
Время предзагрузки промежутка : 500 мс.
Download / Скачать

Хотите скачать бесплатно? Зарегистрируйтесь на сайте (ссылка на регистрацию). Pirat.ca - самый быстрый торрент трекер в рунете!

Как скачивать  ·   Что такое торрент  ·   Рейтинг и ограничения



Последний раз редактировалось: cergo (2013-01-08 17:41), всего редактировалось 2 раз(а)

Пост 08-Янв-2013 21:28 (спустя 5 часов)

Топик был перенесен из форума Наше кино (Трюм) в форум Новинки (HD|DVD|BD|TV|SAT|PDTV| - Rips)

erchine
 

kisu

Гроза морей

Пост 08-Янв-2013 22:29 (спустя 6 часов)

[Q] 

типа эпизод из ментовских войн?
[Профиль]  [ЛС] 

infiniti-r

Корсар

Пост 09-Янв-2013 14:31 (спустя 16 часов)

[Q] 

Спасибо!
[Профиль]  [ЛС] 

cergo ®

Гроза морей

20058

Пост 09-Янв-2013 17:19 (спустя 2 часа 47 минут)

[Q] 

kisu, infiniti-r, miner804, Ya Fratkin, vampytch, vadim0525, aa az
[Профиль]  [ЛС] 

miner804

Морской Волк

Пост 09-Янв-2013 19:46 (спустя 2 часа 27 минут)

[Q] 

Зачет!!!
[Профиль]  [ЛС] 

Ya Fratkin

Морской Волк

Пост 09-Янв-2013 20:45 (спустя 58 минут)

[Q] 

[Профиль]  [ЛС] 

alexsey

Корсар

77

Пост 10-Янв-2013 07:42 (спустя 10 часов)

[Q] 

[Профиль]  [ЛС] 

vampytch

Корсар

417

Пост 10-Янв-2013 12:05 (спустя 4 часа)

[Q] 


_________________
Niemand außer uns!
[Профиль]  [ЛС] 

vadim0525

Корсар

283

Пост 10-Янв-2013 14:32 (спустя 2 часа 27 минут)

[Q] 

Посмотрим.

_________________
[Профиль]  [ЛС] 

artyomka

Штурман

Пост 11-Янв-2013 18:31 (спустя 1 день 3 часа)

[Q] 

Как фильм????
[Профиль]  [ЛС] 

bs_z03

Шкипер

Пост 11-Янв-2013 23:46 (спустя 5 часов)

[Q] 

нормальный фильм.качайте.
[Профиль]  [ЛС] 

sba

Морской Волк

Пост 12-Янв-2013 07:59 (спустя 8 часов)

[Q] 

[Профиль]  [ЛС] 

Дон Кихот

Корсар

Пост 22-Янв-2013 23:38 (спустя 10 дней)

[Q] 

ни че так смотреть можно
[Профиль]  [ЛС] 

natig1906

Штурман

Пост 05-Фев-2013 22:46 (спустя 13 дней)

[Q] 

"Паша решает во что бы то ни стало вернуть свою машину и освободить находящуюся в плену у бандитов сотрудницу ФСБ Настю" - молодец паша:D
[Профиль]  [ЛС] 

polozm

Легенда

Пост 06-Фев-2013 11:26 (спустя 12 часов)

[Q] 

интересно а надо было акцентировать на актерский состав-Дмитрий Аверин (II),Дмитрий Александров (II), Владимир Соснин (III)???это чтоб не спутали с их СУПЕРПОПУЛЯРНЫМИ родственниками? ca Да я например вообще о них в первый раз слышу ah
Царские династии?

_________________
mac mini -2.0 GHz Intel Core i7/ 8 GB DDR3. /Intel HD 3000(512mb)OS X 10.9 Mavericks
[Профиль]  [ЛС] 

Sergi4

Гроза морей

Пост 18-Фев-2013 13:52 (спустя 12 дней)

[Q] 

[Профиль]  [ЛС] 

Элфрей

Штурман

Пост 17-Ноя-2014 21:31 (спустя 1 год 8 месяцев)

[Q] 

Любителям Ментовских войн !COOL!
[Профиль]  [ЛС] 
Показать сообщения:    
Ответить на тему

Текущее время: Сегодня 21:24

Часовой пояс: GMT + 4



Вы не можете начинать темы
Вы не можете отвечать на сообщения
Вы не можете редактировать свои сообщения
Вы не можете удалять свои сообщения
Вы не можете голосовать в опросах
Вы не можете прикреплять файлы к сообщениям
Вы не можете скачивать файлы

▼ Вниз