ML
     
  Уважаемый Гость!
Вы можете поддержать проект и зарегистрироваться у наших партнеров - онлайн-стратегия MyLands. При регистрации в игре Вы получите код, который сможете активировать после регистрации на pirat.ca и получить 1000 дублонов.

Ваш код:
bc31d8aef74c92e19ad67e34a8fa63c3b9b812fb
 
     

Граффити (Игорь Апасян) [2006 г., драма, комедия, DVDRip]

Ответить на тему
 
Автор
Сообщение

Пост 10-Янв-2013 16:02

[Q] 

Bile

-Граффити-- Производство: Кинематограф «Третье Тысячелетие»,Россия
Режиссер: Игорь Апасян
Жанр: драма, комедия
Год выпуска: 2006 г.
Продолжительность: 02:00:58
В ролях: Андрей Новиков, Александр Ильин, Лариса Гузеева, Виктор Перевалов, Иван Николаев, Ольга Юрасова, Александр Кащеев, Александр Соловьев, Клаудиа Бочар, Степан Рожнов-Описание: Художник-дипломник ловит кайф, расписывая в стиле граффити стенки столичной подземки. Но у улицы свои законы, надо знать территорию. В разборке с местными байкерами Андрей получает подбитый глаз, подвернутую ногу и лишается поездки в Италию с выпускным курсом и любимой девушкой. Вместо Венеции Андрея отправляют писать родные просторы в провинцию. Но и здесь он не может обойтись без приключений, только они уже совсем другие…-
Качество видео: DVDRip
Формат видео: AVI
Видео кодек: XviD
Аудио кодек: AC3
Видео: 656x352 (1.86:1), 25 fps, XviD build 65 ~1124 kbps avg, 0.20 bit/pixel
Аудио: 48 kHz, MPEG Layer 3, 2 ch, ~128.00 kbps avg
Cубтитры: отсутствуют
Общее
Полное имя : D:\Фильмы\graffiti.2006.dvdrip.[pirat.ca].avi
Формат : AVI
Формат/Информация : Audio Video Interleave
Размер файла : 1,07 Гбайт
Продолжительность : 2 ч. 0 м.
Общий поток : 1263 Кбит/сек
Программа кодирования : VirtualDubMod 1.5.10.2 (build 2540/release)
Библиотека кодирования : VirtualDubMod build 2540/release
Видео
Идентификатор : 0
Формат : MPEG-4 Visual
Профиль формата : Advanced [email protected]
Параметр BVOP формата : 1
Параметр QPel формата : Нет
Параметр GMC формата : Без точки перехода
Параметр матрицы формата : Выборочная
Идентификатор кодека : XVID
Идентификатор кодека/Подсказка : XviD
Продолжительность : 2 ч. 0 м.
Битрейт : 1125 Кбит/сек
Ширина : 656 пикселей
Высота : 352 пикселя
Соотношение сторон : 1,85:1
Частота кадров : 25,000 кадров/сек
Цветовое пространство : YUV
Субдискретизация насыщенности : 4:2:0
Битовая глубина : 8 бит
Тип развёртки : Прогрессивная
Метод сжатия : С потерями
Бит/(Пиксели*Кадры) : 0.195
Размер потока : 973 Мбайт (89%)
Библиотека кодирования : XviD 65
Аудио
Идентификатор : 1
Формат : MPEG Audio
Версия формата : Version 1
Профиль формата : Layer 3
Идентификатор кодека : 55
Идентификатор кодека/Подсказка : MP3
Продолжительность : 2 ч. 0 м.
Вид битрейта : Постоянный
Битрейт : 128 Кбит/сек
Каналы : 2 канала
Частота : 48,0 КГц
Метод сжатия : С потерями
Размер потока : 111 Мбайт (10%)
Выравнивание : Соединение по промежуткам
Продолжительность промежутка : 40 мс. (1,00 видеокадр)
Время предзагрузки промежутка : 504 мс.
Библиотека кодирования : LAME3.98.4
Download / Скачать

Хотите скачать бесплатно? Зарегистрируйтесь на сайте (ссылка на регистрацию). Pirat.ca - самый быстрый торрент трекер в рунете!

Как скачивать  ·   Что такое торрент  ·   Рейтинг и ограничения

Пост 10-Янв-2013 17:25 (спустя 1 час 23 минуты)

Топик был перенесен из форума Наше кино (Трюм) в форум Российские фильмы

erchine
 

Endorphin666

Штурман

Пост 19-Окт-2014 19:48 (спустя 1 год 9 месяцев)

[Q] 

Фильм отличный!!! Для любителей не стандартного жанра смотреть обязательно!!!
Автору респект!!!
Супер!
[Профиль]  [ЛС] 
Показать сообщения:    
Ответить на тему

Текущее время: Сегодня 12:01

Часовой пояс: GMT + 4



Вы не можете начинать темы
Вы не можете отвечать на сообщения
Вы не можете редактировать свои сообщения
Вы не можете удалять свои сообщения
Вы не можете голосовать в опросах
Вы не можете прикреплять файлы к сообщениям
Вы не можете скачивать файлы

▼ Вниз