ML
     
  Уважаемый Гость!
Вы можете поддержать проект и зарегистрироваться у наших партнеров - онлайн-стратегия MyLands. При регистрации в игре Вы получите код, который сможете активировать после регистрации на pirat.ca и получить 1000 дублонов.

Ваш код:
21acd5966619d49ad0b90c3305467b4646cc11a8
 
     

Ошибки любви (Мария Можар) [2013 г., Мелодрама, комедия, SATRip]

Ответить на тему
 
Автор
Сообщение

Пост 13-Янв-2013 13:50

[Q] 

AGKRus36

-Ошибки любви-- Производство: Россия, "МЕЛОФИЛЬМ"
Режиссер: Мария Можар
Жанр: Мелодрама, комедия
Год выпуска: 2013 г.
Продолжительность: 01:28:00
В ролях: Анна Невская, Ирина Медведева, Ян Цапник-Описание: Героиня этой истории в деловых заботах не замечает, что теряет самого близкого человека – любимого мужа. Но, к счастью, есть новогодняя ночь с ее чудесами и возможностью исправить любые ошибки, даже ошибки любви-Сэмпл
Качество видео: SATRip
Формат видео: AVI
Видео кодек: XviD
Аудио кодек: MP3
Видео: 720x400 (16:9), 25 fps, XviD build 64 ~2100 kbps avg, 0.29 bit/pixel
Аудио: 48 kHz, MPEG Layer 3, 2 ch, ~128.00 kbps avg
Cубтитры: отсутствуют
F:\Фильмы\Ошибки любви\Oshibki.ljubvi.2013.О.SATRip.avi
General
Complete name : F:\Фильмы\Ошибки любви\Oshibki.ljubvi.2013.О.SATRip.avi
Format : AVI
Format/Info : Audio Video Interleave
File size : 1.38 GiB
Duration : 1h 28mn
Overall bit rate : 2 237 Kbps
Writing library : VirtualDub-MPEG2 build 24600/release
Video #0
ID : 0
Format : MPEG-4 Visual
Format profile : [email protected]
Format settings, BVOP : No
Format settings, QPel : No
Format settings, GMC : No warppoints
Format settings, Matrix : Default (H.263)
Codec ID : DX50
Codec ID/Hint : DivX 5
Duration : 1h 28mn
Bit rate : 2 100 Kbps
Width : 720 pixels
Height : 400 pixels
Display aspect ratio : 16:9
Frame rate : 25.000 fps
Color space : YUV
Chroma subsampling : 4:2:0
Bit depth : 8 bits
Scan type : Progressive
Compression mode : Lossy
Bits/(Pixel*Frame) : 0.292
Stream size : 1.29 GiB (94%)
Writing library : XviD 1.2.1 (UTC 2008-12-04)
Audio #1
ID : 1
Format : MPEG Audio
Format version : Version 1
Format profile : Layer 3
Mode : Joint stereo
Mode extension : MS Stereo
Codec ID : 55
Codec ID/Hint : MP3
Duration : 1h 28mn
Bit rate mode : Constant
Bit rate : 128 Kbps
Channel(s) : 2 channels
Sampling rate : 48.0 KHz
Compression mode : Lossy
Stream size : 80.8 MiB (6%)
Alignment : Split accross interleaves
Interleave, duration : 40 ms (1.00 video frame)
Interleave, preload duration : 500 ms
Writing library : LAME3.98.2
Download / Скачать

Хотите скачать бесплатно? Зарегистрируйтесь на сайте (ссылка на регистрацию). Pirat.ca - самый быстрый торрент трекер в рунете!

Как скачивать  ·   Что такое торрент  ·   Рейтинг и ограничения

Пост 13-Янв-2013 13:54 (спустя 4 минуты)

Топик был перенесен из форума Наше кино (Трюм) в форум Новинки (HD|DVD|BD|TV|SAT|PDTV| - Rips)

erchine
 

valeriy_palych

Морской Волк

Пост 13-Янв-2013 15:05 (спустя 1 час 15 минут)

[Q] 

С Новым Годом! С Новым Фильмом!
[Профиль]  [ЛС] 

loden79

Штурман

Пост 13-Янв-2013 15:15 (спустя 10 минут)

[Q] 

На постере с названием фильма криворукие фотожоперы жгут: собрали главного героя из трёх (!), как минимум, частей! Гы!
[Профиль]  [ЛС] 

Fuckinbrutalizer

Лоцман

Пост 13-Янв-2013 19:53 (спустя 4 часа)

[Q] 

ох уж это Российское кино bu
[Профиль]  [ЛС] 

polozm

Легенда

Пост 13-Янв-2013 21:34 (спустя 1 час 40 минут)

[Q] 

305146На постере с названием фильма криворукие фотожоперы жгут: собрали главного героя из трёх (!), как минимум, частей! Гы!
cf db bc fg про "кино" сразу все ясно

_________________
mac mini -2.0 GHz Intel Core i7/ 8 GB DDR3. /Intel HD 3000(512mb)OS X 10.9 Mavericks
[Профиль]  [ЛС] 

Lana38

Корсар

Пост 15-Янв-2013 00:00 (спустя 1 день 2 часа)

[Q] 

[Профиль]  [ЛС] 
Показать сообщения:    
Ответить на тему

Текущее время: Сегодня 23:16

Часовой пояс: GMT + 4



Вы не можете начинать темы
Вы не можете отвечать на сообщения
Вы не можете редактировать свои сообщения
Вы не можете удалять свои сообщения
Вы не можете голосовать в опросах
Вы не можете прикреплять файлы к сообщениям
Вы не можете скачивать файлы

▼ Вниз