ML
     
  Уважаемый Гость!
Вы можете поддержать проект и зарегистрироваться у наших партнеров - онлайн-стратегия MyLands. При регистрации в игре Вы получите код, который сможете активировать после регистрации на pirat.ca и получить 1000 дублонов.

Ваш код:
2fd4e750dd89cae3a36ea360f2b345ccfeb562d3
 
     

Праздник взаперти (Сергей Ткачев) [2012 г., Комедия, DVDRip] [Лицензия]

Ответить на тему
 
Автор
Сообщение

Пост 14-Янв-2013 19:40

[Q] 

AGKRus36

-Праздник взаперти-«Чудо заказывали?»- Производство: Россия
Режиссер: Сергей Ткачев
Жанр: Комедия
Год выпуска: 2012 г.
Продолжительность: 01:15:17-Премьера (мир): 27 декабря 2012
Премьера (РФ): 13 декабря 2012, «Каравелла DDC»
Релиз на DVD: 16 января 2013, «Кармен Видео»-В ролях: Григорий Сиятвинда, Мария Шалаева, Владимир Вдовиченков, Виктория Исакова, Ольга Сутулова, Виталий Хаев, Ольга Волкова, Дмитрий Шевченко, Владимир Ильин, Роман Мадянов, Любовь Толкалина, Дмитрий Марьянов-Описание: Каждый Новый год актер Слава Белкин подрабатывает Дедом Морозом на частных вызовах. К несчастью, на этот раз его постоянная партнерша-Снегурочка прислала вместо себя подружку. Как гласит народная мудрость — «что криво началось, прямо не продолжится!». Уже на третьем заказе мальчик Саша умудрился запереть гостей в квартире и выбросить ключ. А между тем дедушку Мороза ждут у себя серьезные люди, которые заплатили Славе Белкину хороший аванс и приготовились встречать новогоднее чудо у себя дома…-Сэмпл
Качество видео: DVDRip
Формат видео: AVI
Видео кодек: XviD
Аудио кодек: AC3
Видео: 720x400 (1.80:1), 25 fps, XviD build 50 ~2211 kbps avg, 0.31 bit/pixel
Аудио: 48 kHz, AC3 Dolby Digital, 3/2 (L,C,R,l,r) + LFE ch, ~384 kbps [Лицензия]
Cубтитры: отсутствуют
F:\Фильмы\Праздник Взаперти\Prazdnik.vzaperti.2012.O.DVDRip.avi
General
Complete name : F:\Фильмы\Праздник Взаперти\Prazdnik.vzaperti.2012.O.DVDRip.avi
Format : AVI
Format/Info : Audio Video Interleave
File size : 1.37 GiB
Duration : 1h 15mn
Overall bit rate : 2 604 Kbps
Genre : Comedy
Writing application : VirtualDubMod 1.5.10.2 (build 2540/release)
Original source form/Name : Movie
Video #0
ID : 0
Format : MPEG-4 Visual
Format profile : Advanced [email protected]
Format settings, BVOP : 1
Format settings, QPel : No
Format settings, GMC : No warppoints
Format settings, Matrix : Custom
Codec ID : XVID
Codec ID/Hint : XviD
Duration : 1h 15mn
Bit rate : 2 211 Kbps
Width : 720 pixels
Height : 400 pixels
Display aspect ratio : 16:9
Frame rate : 25.000 fps
Color space : YUV
Chroma subsampling : 4:2:0
Bit depth : 8 bits
Scan type : Progressive
Compression mode : Lossy
Bits/(Pixel*Frame) : 0.307
Stream size : 1.16 GiB (85%)
Writing library : XviD 1.2.1 (UTC 2008-12-04)
Audio #1
ID : 1
Format : AC-3
Format/Info : Audio Coding 3
Mode extension : CM (complete main)
Format settings, Endianness : Big
Codec ID : 2000
Duration : 1h 15mn
Bit rate mode : Constant
Bit rate : 384 Kbps
Channel(s) : 6 channels
Channel positions : Front: L C R, Side: L R, LFE
Sampling rate : 48.0 KHz
Bit depth : 16 bits
Compression mode : Lossy
Delay relative to video : 1s 600ms
Stream size : 207 MiB (15%)
Alignment : Split accross interleaves
Interleave, duration : 40 ms (1.00 video frame)
Interleave, preload duration : 500 ms
Download / Скачать

Хотите скачать бесплатно? Зарегистрируйтесь на сайте (ссылка на регистрацию). Pirat.ca - самый быстрый торрент трекер в рунете!

Как скачивать  ·   Что такое торрент  ·   Рейтинг и ограничения

Пост 14-Янв-2013 19:53 (спустя 12 минут)

Топик был перенесен из форума Наше кино (Трюм) в форум Новинки (HD|DVD|BD|TV|SAT|PDTV| - Rips)

ara1205
 

AGKRus36 ®

37904

Пост 14-Янв-2013 20:06 (спустя 25 минут)

[Q] 

Приятного просмотра!!!

_________________
Мои раздачи
[Профиль]  [ЛС] 

Честер

Морской Волк

78

Пост 14-Янв-2013 21:50 (спустя 1 час 44 минуты)

[Q] 

[Профиль]  [ЛС] 

Lana38

Корсар

Пост 14-Янв-2013 23:52 (спустя 2 часа 2 минуты)

[Q] 

[Профиль]  [ЛС] 

Nemetz

Корсар

Пост 15-Янв-2013 00:11 (спустя 18 минут)

[Q] 

[Профиль]  [ЛС] 

egismac

Гроза морей

Пост 15-Янв-2013 02:55 (спустя 2 часа 44 минуты)

[Q] 

Спасибо, качаем.
[Профиль]  [ЛС] 

Jek@

Легенда

Пост 15-Янв-2013 06:06 (спустя 3 часа)

[Q] 

.
[Профиль]  [ЛС] 

Бомс

Морской Волк

Пост 15-Янв-2013 10:33 (спустя 4 часа)

[Q] 

Ну вроди нормальные ленты стали появляться.. Без чернухи..)))))

_________________
Всё будет зашибись! Только не стоит этому мешать!!!
[Профиль]  [ЛС] 

Бомс

Морской Волк

Пост 15-Янв-2013 10:45 (спустя 11 минут)

[Q] 

Скачал.. и остаюсь на раздаче..)

_________________
Всё будет зашибись! Только не стоит этому мешать!!!
[Профиль]  [ЛС] 

infiniti-r

Корсар

Пост 15-Янв-2013 11:48 (спустя 1 час 2 минуты)

[Q] 

[Профиль]  [ЛС] 

kisu

Гроза морей

Пост 15-Янв-2013 13:00 (спустя 1 час 11 минут)

[Q] 

спасибо!
[Профиль]  [ЛС] 

Муравей

Корсар

Пост 15-Янв-2013 14:58 (спустя 1 час 58 минут)

[Q] 

[Профиль]  [ЛС] 

DHARMEEDONT

Флибустьер

Пост 15-Янв-2013 15:47 (спустя 49 минут)

[Q] 

[Профиль]  [ЛС] 

Serzh18

Корсар

Пост 15-Янв-2013 18:06 (спустя 2 часа 18 минут)

[Q] 

[Профиль]  [ЛС] 

Madarashi

Корсар

Пост 15-Янв-2013 18:17 (спустя 11 минут)

[Q] 

[Профиль]  [ЛС] 

kinstintin

Гроза морей

Пост 15-Янв-2013 19:43 (спустя 1 час 25 минут)

[Q] 

aa
[Профиль]  [ЛС] 

recon811

Шкипер

Пост 15-Янв-2013 21:20 (спустя 1 час 36 минут)

[Q] 

Спасибо, оценим
[Профиль]  [ЛС] 

Aleks44

Гроза морей

Пост 17-Янв-2013 22:07 (спустя 2 дня)

[Q] 

Так средний если не посмотреть то многое не потеряешь
[Профиль]  [ЛС] 

smartboy

Корсар

Пост 20-Янв-2013 17:16 (спустя 2 дня 19 часов)

[Q] 

[Профиль]  [ЛС] 

ЁшкинКот

Штурман

Пост 20-Янв-2013 17:46 (спустя 30 минут)

[Q] 

[Профиль]  [ЛС] 

stylov89

Юнга

Пост 22-Янв-2013 20:21 (спустя 2 дня 2 часа)

[Q] 

спасибо
[Профиль]  [ЛС] 

vik238

Корсар

Пост 22-Янв-2013 21:29 (спустя 1 час 7 минут)

[Q] 

[Профиль]  [ЛС] 

sekin22

Шкипер

Пост 22-Янв-2013 23:00 (спустя 1 час 31 минута)

[Q] 

посмотрим,бочка в трюме!
[Профиль]  [ЛС] 

elena.vorobyeva

Морской Волк

Пост 02-Фев-2013 18:01 (спустя 10 дней)

[Q] 

Иногда хочется просто посмотреть кино, без всяких дум, надеюсь приличный подбор артистов даст такую возможность.
Спасибо !
[Профиль]  [ЛС] 
Показать сообщения:    
Ответить на тему

Текущее время: Сегодня 14:10

Часовой пояс: GMT + 4



Вы не можете начинать темы
Вы не можете отвечать на сообщения
Вы не можете редактировать свои сообщения
Вы не можете удалять свои сообщения
Вы не можете голосовать в опросах
Вы не можете прикреплять файлы к сообщениям
Вы не можете скачивать файлы

▼ Вниз