ML
     
  Уважаемый Гость!
Вы можете поддержать проект и зарегистрироваться у наших партнеров - онлайн-стратегия MyLands. При регистрации в игре Вы получите код, который сможете активировать после регистрации на pirat.ca и получить 1000 дублонов.

Ваш код:
bb0cb47ee786a33f751af5a500dd264c9487bfac
 
     

Я тоже хочу (Алексей Балабанов) [2012 г., драма, криминал, DVDRip] [Лицензия]

Страницы :  1, 2, 3  След.

Ответить на тему
 
Автор
Сообщение

Пост 17-Янв-2013 01:18

[Q] 

AGKRus36

-Я тоже хочу-- -Производство: Россия
Режиссер: Алексей Балабанов
Жанр: драма, криминал
Год выпуска: 2012 г.
Продолжительность: 01:19:51-Российская премьера: 13 декабря 2012, «Наше Кино»
Дата выхода DVD: 15 января 2013, «Lizard Cinema Trade»-В ролях: Александр Мосин, Олег Гаркуша, Юрий Матвеев, Алиса Шитикова, Алексей Балабанов, Петр Балабанов, Виктор Горбунов, Авдотья Смирнова, Сергей Шолохов, Сергей Кульчицкий...-Описание: По пустынной летней дороге мчится огромный черный джип. В нем — Бандит, его друг Матвей со стариком-отцом, Музыкант и красивая девушка. Они ищут Колокольню Счастья, которая по слухам находится где-то между Питером и Угличем, рядом с уже давно неработающей атомной станцией. Колокольня забирает людей. Но не всех. Но в темной большой машине каждый верит, что выберут его.-Сэмпл КиноПоиск
Качество видео: DVDRip
Формат видео: AVI
Видео кодек: XviD
Аудио кодек: AC3
Видео: 720x384 (1.85:1), 25 fps, XviD ~ 2167 kbps avg, 0.313 bit/pixel
Аудио: 48 kHz, AC3 , 6 ch, 448.00 kbps [Лицензия]
Cубтитры: отсутствуют
F:\Фильмы\Я тоже хочу\Ya.tozhe.hochu.2012.O.DVDRip.avi
General
Complete name : F:\Фильмы\Я тоже хочу\Ya.tozhe.hochu.2012.O.DVDRip.avi
Format : AVI
Format/Info : Audio Video Interleave
File size : 1.46 GiB
Duration : 1h 19mn
Overall bit rate : 2 625 Kbps
Writing application : VirtualDubMod 1.5.10.3 | www.virtualdub-fr.org || (build 2550/release)
Writing library : VirtualDubMod build 2550/release
Video #0
ID : 0
Format : MPEG-4 Visual
Format profile : Advanced [email protected]
Format settings, BVOP : 1
Format settings, QPel : No
Format settings, GMC : No warppoints
Format settings, Matrix : Custom
Codec ID : XVID
Codec ID/Hint : XviD
Duration : 1h 19mn
Bit rate : 2 167 Kbps
Width : 720 pixels
Height : 384 pixels
Display aspect ratio : 1.85:1
Frame rate : 25.000 fps
Color space : YUV
Chroma subsampling : 4:2:0
Bit depth : 8 bits
Scan type : Progressive
Compression mode : Lossy
Bits/(Pixel*Frame) : 0.313
Stream size : 1.21 GiB (83%)
Writing library : XviD 65
Audio #1
ID : 1
Format : AC-3
Format/Info : Audio Coding 3
Mode extension : CM (complete main)
Format settings, Endianness : Big
Codec ID : 2000
Duration : 1h 19mn
Bit rate mode : Constant
Bit rate : 448 Kbps
Channel(s) : 6 channels
Channel positions : Front: L C R, Side: L R, LFE
Sampling rate : 48.0 KHz
Bit depth : 16 bits
Compression mode : Lossy
Stream size : 256 MiB (17%)
Alignment : Split accross interleaves
Interleave, duration : 40 ms (1.00 video frame)
Interleave, preload duration : 500 ms
Download / Скачать

Хотите скачать бесплатно? Зарегистрируйтесь на сайте (ссылка на регистрацию). Pirat.ca - самый быстрый торрент трекер в рунете!

Как скачивать  ·   Что такое торрент  ·   Рейтинг и ограничения

Пост 17-Янв-2013 02:06 (спустя 48 минут)

Топик был перенесен из форума Наше кино (Трюм) в форум Новинки (HD|DVD|BD|TV|SAT|PDTV| - Rips)

erchine
 

alexcmex

Лоцман

Пост 17-Янв-2013 02:26 (спустя 1 час 7 минут)

[Q] 

Первый!
[Профиль]  [ЛС] 

Принц Датский

Корсар

Пост 17-Янв-2013 08:05 (спустя 5 часов)

[Q] 

Первый!
Возьми с полки пирожок bx

_________________
[Профиль]  [ЛС] 

ksg111ban

Гроза морей

Пост 17-Янв-2013 12:33 (спустя 4 часа)

[Q] 


_________________
[Профиль]  [ЛС] 

maglot129

Корсар

Пост 17-Янв-2013 13:07 (спустя 34 минуты)

[Q] 

бочка!!!
[Профиль]  [ЛС] 

Mixrool

Корсар

Пост 17-Янв-2013 16:35 (спустя 3 часа)

[Q] 

А Красавелла Дружище!!!!
Давно жду!!! В киношке посмотреть не мог, всё ждал пока появится в сети!!!
От души!
[Профиль]  [ЛС] 

Yrets

Флибустьер

159

Пост 17-Янв-2013 17:27 (спустя 52 минуты)

[Q] 

Спасибо!!! Балобанова надо глянуть еще не одного фильма г... не видел... Лови бочку.
[Профиль]  [ЛС] 

Hombre250

Морской Волк

Пост 17-Янв-2013 20:04 (спустя 2 часа 36 минут)

[Q] 

спасибо за труды, должно быть не ординарное кино
[Профиль]  [ЛС] 

alexdubna

Морской Волк

Пост 17-Янв-2013 21:24 (спустя 1 час 19 минут)

[Q] 

[Профиль]  [ЛС] 

egismac

Гроза морей

Пост 17-Янв-2013 21:57 (спустя 33 минуты)

[Q] 

качаем.
[Профиль]  [ЛС] 

pro100userspb

Корсар

Пост 17-Янв-2013 22:50 (спустя 52 минуты)

[Q] 


_________________
[Профиль]  [ЛС] 

Jell

Корсар

Пост 17-Янв-2013 23:01 (спустя 10 минут)

[Q] 

[Профиль]  [ЛС] 

Jek@

Легенда

Пост 18-Янв-2013 02:05 (спустя 3 часа)

[Q] 

.
[Профиль]  [ЛС] 

infiniti-r

Корсар

Пост 18-Янв-2013 13:29 (спустя 11 часов)

[Q] 

[Профиль]  [ЛС] 

antis1962

Корсар

Пост 18-Янв-2013 14:38 (спустя 1 час 9 минут)

[Q] 

СПАСИБО!!!!
[Профиль]  [ЛС] 

Kibersanya

Корсар

Пост 18-Янв-2013 15:48 (спустя 1 час 9 минут)

[Q] 

[Профиль]  [ЛС] 

МИЙС

Юнга

Пост 18-Янв-2013 17:51 (спустя 2 часа 3 минуты)

[Q] 

а как фильм то?
[Профиль]  [ЛС] 

Snek

Штурман

Пост 18-Янв-2013 18:32 (спустя 40 минут)

[Q] 

А х** тебе кто скажет:)) Еще куча постов Спасибо и "лови бочку", так что гугли)))
Ща гляну, напишу свое ИМХО, если незабуду)))
[Профиль]  [ЛС] 

Dj_GROB

Штурман

Пост 18-Янв-2013 18:54 (спустя 21 минута)

[Q] 

Snek, По ходу забыл... {мат} вспомните наконец.
[Профиль]  [ЛС] 

gr71silver

Корсар

Пост 18-Янв-2013 19:36 (спустя 42 минуты)

[Q] 

Спасибо!
[Профиль]  [ЛС] 

zaprosto71

Лоцман

Пост 18-Янв-2013 20:11 (спустя 34 минуты)

[Q] 

Фильм посмотрел, понравился , Гаркуша молодец!
[Профиль]  [ЛС] 

recon811

Шкипер

Пост 18-Янв-2013 22:23 (спустя 2 часа 12 минут)

[Q] 

спасибо, посмотрим ! Надеюсь - не разочарует.
[Профиль]  [ЛС] 

Maryino

Морской Волк

Пост 18-Янв-2013 22:27 (спустя 4 минуты)

[Q] 

Фильм очень скучный - ни о чем. Похоже у Балаебланова крыша поехала окончательно.
[Профиль]  [ЛС] 

Kibersanya

Корсар

Пост 19-Янв-2013 13:14 (спустя 14 часов)

[Q] 

Соглашусь с предыдущим комментом - ещё как поехала!!!
[Профиль]  [ЛС] 

dusha51

Шкипер

Пост 19-Янв-2013 15:17 (спустя 2 часа 2 минуты)

[Q] 

Не нравится-качай мультики!

_________________
[Профиль]  [ЛС] 

dusha51

Шкипер

Пост 19-Янв-2013 17:21 (спустя 2 часа 3 минуты)

[Q] 

Вобще то с жанром ты ошибся. Это мистика, роуд-муви.Сюжет на любителя...Раз посмотреть,а потом сильно об этом пожалеть...Вобще смысла в фильме нет никакого...Очередной эксперимент...И все равно--

_________________
[Профиль]  [ЛС] 

kisu

Гроза морей

Пост 19-Янв-2013 17:30 (спустя 9 минут)

[Q] 

[Профиль]  [ЛС] 

VanoCHIN

Морской Волк

Пост 19-Янв-2013 17:50 (спустя 19 минут)

[Q] 

Погляжу, отпишусь..
[Профиль]  [ЛС] 

Snek

Штурман

Пост 19-Янв-2013 19:44 (спустя 1 час 54 минуты)

[Q] 

На любителя, причем религиозного, хотя и так не совсем верно...
Укуреный фильмец, а Гаркуша МОЛОДЕЦ! bm
[Профиль]  [ЛС] 
Показать сообщения:    
Ответить на тему

Текущее время: Сегодня 02:19

Часовой пояс: GMT + 4



Вы не можете начинать темы
Вы не можете отвечать на сообщения
Вы не можете редактировать свои сообщения
Вы не можете удалять свои сообщения
Вы не можете голосовать в опросах
Вы не можете прикреплять файлы к сообщениям
Вы не можете скачивать файлы

▼ Вниз