ML
     
  Уважаемый Гость!
Вы можете поддержать проект и зарегистрироваться у наших партнеров - онлайн-стратегия MyLands. При регистрации в игре Вы получите код, который сможете активировать после регистрации на pirat.ca и получить 1000 дублонов.

Ваш код:
59354507ba913a0948d1a8f2e30f2e04c4cd7b9b
 
     

Под прицелом любви (Дмитрий Лактионов) [2012 г., Детектив, мелодрама, HDTVRip]

Ответить на тему
 
Автор
Сообщение

Пост 21-Янв-2013 11:56

[Q] 

ara1205

-Под прицелом любви-- Производство: Россия, Украина
Режиссер: Дмитрий Лактионов
Жанр: Детектив, мелодрама
Год выпуска: 2012 г.
Продолжительность: 01:44:00
Российская премьера: 20 января 2013-В ролях: Яна Соболевская, Павел Баршак, Денис Рожков, Владимир Симонов, Александра Назарова, Алексей Смолка, София Стеценко, Марина Богатова, Заза Чантурия, Дмитрий Гаврилов (II), Денис Толяренко-Описание: С крыши торгового центра упала Анна Власова – дочь крупного бизнесмена. Следователь Борисов не находит мотивов для убийства, тем более, что в крови девушки были найдены наркотики. Но сестра погибшей Кира не считает, что Аня сама решила свести счеты с жизнью. Она решает разобраться в странной смерти сестры и убеждает Борисова не закрывать дело. Тот продолжает искать улики, а тем временем и сама Кира ищет малейшую ниточку, чтобы распутать клубок. И события начинают развиваться с пугающей скоростью: все знакомые Ани, чьи показания были важны для следствия - погибают. Кира не подозревает, что правда, которую она ищет, может оказаться смертельной и для нее самой.-Сэмпл; КиноТеатр-Качество видео: HDTVRip
Контейнер: AVI
Видео кодек: XviD
Аудио кодек: AC3
Видео: 720x400, 25 fps, 1658 kbps avg, 0.23 bit/pixel
Аудио: 48 kHz, AC3 Dolby Digital, 2/0 (L,R) ch, ~192.00 kbps avg
Cубтитры: отсутствуют-
Общее
Полное имя : C:\Users\Ромик\Pictures\Посмотреть\Под прицелом любви\Pod.pritselom.lyubvi.2012.XviD.HDTVRip.Files-x.avi
Формат : AVI
Формат/Информация : Audio Video Interleave
Размер файла : 1,36 Гбайт
Продолжительность : 1 ч. 45 м.
Общий поток : 1860 Кбит/сек
Программа кодирования : VirtualDubMod 1.5.10.3 | www.virtualdub-fr.org || (build 2550/release)
Библиотека кодирования : VirtualDubMod build 2550/release
Видео
Идентификатор : 0
Формат : MPEG-4 Visual
Профиль формата : Advanced [email protected]
Параметр BVOP формата : 1
Параметр QPel формата : Нет
Параметр GMC формата : Без точки перехода
Параметр матрицы формата : Default (H.263)
Идентификатор кодека : XVID
Идентификатор кодека/Подсказка : XviD
Продолжительность : 1 ч. 45 м.
Битрейт : 1658 Кбит/сек
Ширина : 720 пикселей
Высота : 400 пикселей
Соотношение сторон : 16:9
Частота кадров : 25,000 кадров/сек
Цветовое пространство : YUV
Субдискретизация насыщенности : 4:2:0
Битовая глубина : 8 бит
Тип развёртки : Прогрессивная
Метод сжатия : С потерями
Бит/(Пиксели*Кадры) : 0.230
Размер потока : 1,22 Гбайт (89%)
Библиотека кодирования : XviD 1.2.1 (UTC 2008-12-04)
Аудио
Идентификатор : 1
Формат : AC-3
Формат/Информация : Audio Coding 3
Расширение режима : CM (complete main)
Параметр Endianness формата : Big
Идентификатор кодека : 2000
Продолжительность : 1 ч. 45 м.
Вид битрейта : Постоянный
Битрейт : 192 Кбит/сек
Каналы : 2 канала
Расположение каналов : Front: L R
Частота : 48,0 КГц
Битовая глубина : 16 бит
Метод сжатия : С потерями
Размер потока : 144 Мбайт (10%)
Выравнивание : Разделение по промежуткам
Продолжительность промежутка : 40 мс. (1,00 видеокадр)
Время предзагрузки промежутка : 500 мс.
-
-
-
Download / Скачать

Хотите скачать бесплатно? Зарегистрируйтесь на сайте (ссылка на регистрацию). Pirat.ca - самый быстрый торрент трекер в рунете!

Как скачивать  ·   Что такое торрент  ·   Рейтинг и ограничения

yulya230784

Морской Волк

927

Пост 21-Янв-2013 13:15 (спустя 1 час 19 минут)

[Q] 

[Профиль]  [ЛС] 

polozm

Легенда

Пост 21-Янв-2013 13:36 (спустя 20 минут)

[Q] 

испугался описания ca не буду качать ah

_________________
mac mini -2.0 GHz Intel Core i7/ 8 GB DDR3. /Intel HD 3000(512mb)OS X 10.9 Mavericks
[Профиль]  [ЛС] 

ku6opr

Морской Волк

184

Пост 21-Янв-2013 16:54 (спустя 3 часа)

[Q] 

Посмотрим:)

_________________
[Профиль]  [ЛС] 

Kibersanya

Корсар

Пост 21-Янв-2013 18:07 (спустя 1 час 13 минут)

[Q] 

спасибо, посмотрим!
[Профиль]  [ЛС] 

recon811

Шкипер

Пост 21-Янв-2013 21:36 (спустя 3 часа)

[Q] 

спасибо, бум смотреть.
[Профиль]  [ЛС] 
Показать сообщения:    
Ответить на тему

Текущее время: Сегодня 16:07

Часовой пояс: GMT + 4



Вы не можете начинать темы
Вы не можете отвечать на сообщения
Вы не можете редактировать свои сообщения
Вы не можете удалять свои сообщения
Вы не можете голосовать в опросах
Вы не можете прикреплять файлы к сообщениям
Вы не можете скачивать файлы

▼ Вниз