ML
     
  Уважаемый Гость!
Вы можете поддержать проект и зарегистрироваться у наших партнеров - онлайн-стратегия MyLands. При регистрации в игре Вы получите код, который сможете активировать после регистрации на pirat.ca и получить 1000 дублонов.

Ваш код:
2fd4e750dd89cae3a36ea360f2b345ccfeb562d3
 
     

Отдам котят в хорошие руки (Александр Баршак) [2012 г., комедия, HDTVRip]

Ответить на тему
 
Автор
Сообщение

Пост 21-Янв-2013 12:51

[Q] 

ara1205

-Отдам котят в хорошие руки-- Производство: Россия
Режиссер: Александр Баршак
Жанр: комедия
Год выпуска: 2012 г.
Продолжительность: 01:34:21-В ролях: Карина Андоленко, Ирина Медведева, Денис Бургазлиев, Николай Иванов, Михаил Горевой, Тимофей Трибунцев, Надежда Иванова-Описание: В канун Нового Года жизнь подбрасывает Кате целый ворох проблем: уходит любовник, на работе грядут серьезные перемены, а под дверью оказывается коробка с котятами. Пытаясь пристроить котят в «хорошие руки», она попадает в целый водоворот событий, что в конечном итоге позволяет ей переосмыслить многое в своей жизни.-Сэмпл КиноПоиск-Качество видео: HDTVRip
Контейнер: AVI
Видео кодек: XviD
Аудио кодек: MP3
Видео: 720x400, 25 fps, 1883 kbps avg, 0.262 bit/pixel
Аудио: 48 kHz, 2 ch, 128 Кбит/с
Cубтитры: отсутствуют-
Общее
Полное имя : C:\Users\Ромик\Pictures\Посмотреть\Отдам котят в хорошие руки\Otdam.kotyat.v.khoroshiye.ruki.2012.HDTVRip.Getty.avi
Формат : AVI
Формат/Информация : Audio Video Interleave
Размер файла : 1,37 Гбайт
Продолжительность : 1 ч. 34 м.
Общий поток : 2085 Кбит/сек
Программа кодирования : VirtualDubMod 1.5.10.3 (build 2550/release)
Библиотека кодирования : VirtualDubMod build 2550/release
Видео
Идентификатор : 0
Формат : MPEG-4 Visual
Профиль формата : Advanced [email protected]
Параметр BVOP формата : 2
Параметр QPel формата : Нет
Параметр GMC формата : Без точки перехода
Параметр матрицы формата : Default (H.263)
Режим смешивания : Сжатый битовый поток
Идентификатор кодека : XVID
Идентификатор кодека/Подсказка : XviD
Продолжительность : 1 ч. 34 м.
Битрейт : 1883 Кбит/сек
Ширина : 720 пикселей
Высота : 400 пикселей
Соотношение сторон : 16:9
Соотношение сторон в оригинале : 16:9
Частота кадров : 25,000 кадров/сек
Цветовое пространство : YUV
Субдискретизация насыщенности : 4:2:0
Битовая глубина : 8 бит
Тип развёртки : Прогрессивная
Метод сжатия : С потерями
Бит/(Пиксели*Кадры) : 0.262
Размер потока : 1,24 Гбайт (90%)
Библиотека кодирования : XviD 64
Аудио
Идентификатор : 1
Формат : AC-3
Формат/Информация : Audio Coding 3
Расширение режима : CM (complete main)
Параметр Endianness формата : Big
Идентификатор кодека : 2000
Продолжительность : 1 ч. 34 м.
Вид битрейта : Постоянный
Битрейт : 192 Кбит/сек
Каналы : 2 канала
Расположение каналов : Front: L R
Частота : 48,0 КГц
Битовая глубина : 16 бит
Метод сжатия : С потерями
Размер потока : 130 Мбайт (9%)
Выравнивание : Соединение по промежуткам
Продолжительность промежутка : 40 мс. (1,00 видеокадр)
Время предзагрузки промежутка : 512 мс.
-
-
-
Download / Скачать

Хотите скачать бесплатно? Зарегистрируйтесь на сайте (ссылка на регистрацию). Pirat.ca - самый быстрый торрент трекер в рунете!

Как скачивать  ·   Что такое торрент  ·   Рейтинг и ограничения

yulya230784

Морской Волк

927

Пост 21-Янв-2013 13:13 (спустя 22 минуты)

[Q] 

[Профиль]  [ЛС] 

СерВолк

Корсар

Пост 21-Янв-2013 13:27 (спустя 13 минут)

[Q] 

уже смешно cm проблема ушел любовник ... придется новый год с мужем отмечать ag
[Профиль]  [ЛС] 

polozm

Легенда

Пост 21-Янв-2013 13:34 (спустя 6 минут)

[Q] 

постеры убогие у наших фильмов в последнее время...зря наверно

_________________
mac mini -2.0 GHz Intel Core i7/ 8 GB DDR3. /Intel HD 3000(512mb)OS X 10.9 Mavericks
[Профиль]  [ЛС] 

slavix

Корсар

Пост 21-Янв-2013 14:04 (спустя 30 минут)

[Q] 

310034постеры убогие у наших фильмов в последнее время
как и фильмы
[Профиль]  [ЛС] 

kinstintin

Гроза морей

Пост 21-Янв-2013 18:34 (спустя 4 часа)

[Q] 


посмотрим очередной шедевр нашего кинематографа
[Профиль]  [ЛС] 

leonid.

Флибустьер

Пост 21-Янв-2013 21:59 (спустя 3 часа)

[Q] 

Cпасибо!
[Профиль]  [ЛС] 

tester83

Штурман

Пост 25-Янв-2013 12:49 (спустя 3 дня)

[Q] 

ниче такой фильм... на разок.
[Профиль]  [ЛС] 
Показать сообщения:    
Ответить на тему

Текущее время: Сегодня 14:14

Часовой пояс: GMT + 4



Вы не можете начинать темы
Вы не можете отвечать на сообщения
Вы не можете редактировать свои сообщения
Вы не можете удалять свои сообщения
Вы не можете голосовать в опросах
Вы не можете прикреплять файлы к сообщениям
Вы не можете скачивать файлы

▼ Вниз