ML
     
  Уважаемый Гость!
Вы можете поддержать проект и зарегистрироваться у наших партнеров - онлайн-стратегия MyLands. При регистрации в игре Вы получите код, который сможете активировать после регистрации на pirat.ca и получить 1000 дублонов.

Ваш код:
4855957e17f50c5c1236a0f8c4492b2b0bba00a0
 
     

Всё просто (Соня Карпунина) [2012 г., мелодрама, комедия, DVDRip] [Лицензия]

Ответить на тему
 
Автор
Сообщение

Пост 21-Янв-2013 21:43

[Q] 

AGKRus36

-Всё просто-- Производство: Россия / ВайТ Медиа
Режиссер: Соня Карпунина
Жанр: мелодрама, комедия
Год выпуска: 2012 г.
Продолжительность: 01:34:41
Российская премьера: 6 декабря 2012, «Парадиз»
Дата выхода DVD: 22 января 2013, «Парадиз Медиа»
В ролях: Софья Карпунина, Клим Шипенко, Константин Крюков, Агния Кузнецова, Александр Яценко, Артём Быстров, Александр Самойленко, Донатас Грудович, Любовь Толкалина, Михаил Бабичев, Гела Месхи, Вадим Верник-Описание: Надя из Питера, учится в Лондоне. Родители создают возможность жить без особых забот и хлопот. Молодой человек Женя работает в Москве в крупной компании и подает большие надежды. Одно расстройство - из-за перспективной работы Женя переехал в Москву, а Надя осталась в Лондоне. 3000 километров - слишком далеко. И Надя решает сделать Жене сюрприз - приехать в гости без предупреждения. В итоге, сюрпризы ожидают не только Женю, но и Надю.-Сэмпл КиноПоиск
Качество видео: DVDRip
Контейнер: AVI
Видео кодек: XviD
Аудио кодек: AC3
Видео: 720x304 (2.37:1), 25 fps, XviD build 50 ~1797 kbps avg, 0.33 bit/pixel
Аудио: 48 kHz, AC3 Dolby Digital, 3/2 (L,C,R,l,r) + LFE ch, ~384 kbps [Лицензия]
Cубтитры: отсутствуют
F:\Всё просто\Vsjo.prosto.2012.O.DVDRip.avi
General
Complete name : F:\Всё просто\Vsjo.prosto.2012.O.DVDRip.avi
Format : AVI
Format/Info : Audio Video Interleave
File size : 1.45 GiB
Duration : 1h 34mn
Overall bit rate : 2 191 Kbps
Genre : Romance / Comedy
Writing application : VirtualDubMod 1.5.10.2 (build 2540/release)
Original source form/Name : Movie
Video #0
ID : 0
Format : MPEG-4 Visual
Format profile : Advanced [email protected]
Format settings, BVOP : 1
Format settings, QPel : No
Format settings, GMC : No warppoints
Format settings, Matrix : Custom
Codec ID : XVID
Codec ID/Hint : XviD
Duration : 1h 34mn
Bit rate : 1 798 Kbps
Width : 720 pixels
Height : 304 pixels
Display aspect ratio : 2.35:1
Frame rate : 25.000 fps
Color space : YUV
Chroma subsampling : 4:2:0
Bit depth : 8 bits
Scan type : Progressive
Compression mode : Lossy
Bits/(Pixel*Frame) : 0.329
Stream size : 1.19 GiB (82%)
Writing library : XviD 1.2.1 (UTC 2008-12-04)
Audio #1
ID : 1
Format : AC-3
Format/Info : Audio Coding 3
Mode extension : CM (complete main)
Format settings, Endianness : Big
Codec ID : 2000
Duration : 1h 34mn
Bit rate mode : Constant
Bit rate : 384 Kbps
Channel(s) : 6 channels
Channel positions : Front: L C R, Side: L R, LFE
Sampling rate : 48.0 KHz
Bit depth : 16 bits
Compression mode : Lossy
Delay relative to video : 1s 600ms
Stream size : 260 MiB (18%)
Alignment : Split accross interleaves
Interleave, duration : 40 ms (1.00 video frame)
Interleave, preload duration : 500 ms
Download / Скачать

Хотите скачать бесплатно? Зарегистрируйтесь на сайте (ссылка на регистрацию). Pirat.ca - самый быстрый торрент трекер в рунете!

Как скачивать  ·   Что такое торрент  ·   Рейтинг и ограничения

Пост 21-Янв-2013 22:10 (спустя 26 минут)

Топик был перенесен из форума Наше кино (Трюм) в форум Новинки (HD|DVD|BD|TV|SAT|PDTV| - Rips)

erchine
 

Znoi

Флибустьер

1163

Пост 21-Янв-2013 23:59 (спустя 2 часа 15 минут)

[Q] 

.
[Профиль]  [ЛС] 

persia07

Морской Волк

82

Пост 22-Янв-2013 01:19 (спустя 1 час 20 минут)

[Q] 

[Профиль]  [ЛС] 

infiniti-r

Корсар

Пост 22-Янв-2013 11:47 (спустя 10 часов)

[Q] 

[Профиль]  [ЛС] 

recon811

Шкипер

Пост 22-Янв-2013 20:23 (спустя 8 часов)

[Q] 

спасибо
[Профиль]  [ЛС] 

alexdubna

Морской Волк

Пост 10-Фев-2013 19:54 (спустя 18 дней)

[Q] 

[Профиль]  [ЛС] 

QvilS

Штурман

Пост 12-Фев-2013 22:48 (спустя 2 дня 2 часа)

[Q] 

[Профиль]  [ЛС] 

MAPA3M

Шкипер

Пост 13-Фев-2013 01:35 (спустя 2 часа 46 минут)

[Q] 

[Профиль]  [ЛС] 

vlad7022

Корсар

Пост 14-Фев-2013 01:49 (спустя 1 день)

[Q] 

[Профиль]  [ЛС] 

янка-сан

Гроза морей

Пост 11-Апр-2013 00:09 (спустя 1 месяц 24 дня)

[Q] 

спасибо
  • [thumb][/thumb]
  • [Профиль]  [ЛС] 

    янка-сан

    Гроза морей

    Пост 11-Апр-2013 00:10 (спустя 1 минута)

    [Q] 

    спасибо
    [Профиль]  [ЛС] 

    Nemetz

    Корсар

    Пост 11-Апр-2013 05:49 (спустя 5 часов)

    [Q] 

    Как фильм? Хоть бы кто пару слов чирканул..
    [Профиль]  [ЛС] 

    anton78

    Морской Волк

    Пост 16-Апр-2013 22:23 (спустя 5 дней)

    [Q] 

    качну из за Крюкова. Отпишусь!!!
    [Профиль]  [ЛС] 

    anton78

    Морской Волк

    Пост 17-Апр-2013 23:45 (спустя 1 день 1 час)

    [Q] 

    Нет два вечера смотрел по 30 мин. Нудятина до конца сил не хватило досмотреть. Зря потрачено время
    [Профиль]  [ЛС] 

    Nemetz

    Корсар

    Пост 18-Апр-2013 02:44 (спустя 2 часа 58 минут)

    [Q] 

    357448качну из за Крюкова. Отпишусь!!!
    А мне наоборот Крюков не нравится.. Хотя в этом фильме его роль, на большее он не способен.
    Фильм понравился, это в принципе то, что я от него ждал, легкость и хороший саундрек с картинкой. Соня Карпунина молодес!
    [Профиль]  [ЛС] 
    Показать сообщения:    
    Ответить на тему

    Текущее время: Сегодня 06:12

    Часовой пояс: GMT + 4



    Вы не можете начинать темы
    Вы не можете отвечать на сообщения
    Вы не можете редактировать свои сообщения
    Вы не можете удалять свои сообщения
    Вы не можете голосовать в опросах
    Вы не можете прикреплять файлы к сообщениям
    Вы не можете скачивать файлы

    ▼ Вниз