ML
     
  Уважаемый Гость!
Вы можете поддержать проект и зарегистрироваться у наших партнеров - онлайн-стратегия MyLands. При регистрации в игре Вы получите код, который сможете активировать после регистрации на pirat.ca и получить 1000 дублонов.

Ваш код:
21acd5966619d49ad0b90c3305467b4646cc11a8
 
     

Бедная Саша (Тигран Кеосаян) [1997 г., комедия, DVBRip]

Ответить на тему
 
Автор
Сообщение

Пост 17-Дек-2011 22:18

[Q] 

leha1975

Гроза морей

Бедная Саша
Год выпуска: 1997
Жанр: комедия
Продолжительность: 01:31:43
Режиссер: Тигран Кеосаян
В ролях: Юлия Чернова, Александр Збруев, Вера Глаголева, Ольга Волкова, Борис Сичкин, Валерий Гаркалин, Армен Джигарханян, Спартак Мишулин, Нина Русланова, Анатолий Журавлёв
Описание: Новая русская` девочка хочет ограбить банк своей `новой русской` мамы, для того, чтобы она перестала быть банкиршей, а стала просто любимой мамочкой. `Бедная Саша` - это, конечно же, новогодняя сказка о том, как сильно люди нуждаются в любви: девочке недостает родительского тепла, ее мама неуютно чувствует себя без любимого человека. А главный герой, талантливый и благородный, чтобы вновь почувствовать себя мужчиной, должен защитить нежных и трогательных женщин. Тем более, что они - маленькая и взрослая - так похожи на несбыточную мечту.
MEDIAINFO
G:\pirat.ca\раздачи\Бедная Саша.avi
General
Complete name : G:\pirat.ca\раздачи\Бедная Саша.avi
Format : AVI
Format/Info : Audio Video Interleave
File size : 1.51 GiB
Duration : 1h 31mn
Overall bit rate : 2 355 Kbps
Writing application : VirtualDubMod 1.5.10.3 | www.virtualdub-fr.org || (build 2550/release)
Writing library : VirtualDubMod build 2550/release
Video #0
ID : 0
Format : MPEG-4 Visual
Format profile : Advanced [email protected]
Format settings, BVOP : Yes
Format settings, QPel : No
Format settings, GMC : No warppoints
Format settings, Matrix : Default (MPEG)
Codec ID : XVID
Codec ID/Hint : XviD
Duration : 1h 31mn
Bit rate : 2 153 Kbps
Width : 720 pixels
Height : 544 pixels
Display aspect ratio : 4:3
Frame rate : 25.000 fps
Resolution : 8 bits
Colorimetry : 4:2:0
Scan type : Progressive
Bits/(Pixel*Frame) : 0.220
Stream size : 1.38 GiB (91%)
Writing library : XviD 1.2.1 (UTC 2008-12-04)
Audio #1
ID : 1
Format : AC-3
Format/Info : Audio Coding 3
Format_Settings_ModeExtension : CM (complete main)
Codec ID : 2000
Duration : 1h 31mn
Bit rate mode : Constant
Bit rate : 192 Kbps
Channel(s) : 2 channels
Channel positions : Front: L R
Sampling rate : 48.0 KHz
Stream size : 126 MiB (8%)
Alignment : Split accross interleaves
Interleave, duration : 40 ms (1.00 video frame)
Interleave, preload duration : 500 ms
Доп. информация: Исходник DVB fsg_1 (Старался сделать как можно лучше.)Источник/Качество: DVBRipФормат: AVIВидео кодек: XviD
Аудио кодек: AC3
Видео: 720x544 (1.32:1) 25 fps XviD build 50 2152 kbps avg 0.22 bit/pixelАудио: 48 kHz AC3 Dolby Digital 2/0 (L,R) ch 192 kbps
Download / Скачать

Хотите скачать бесплатно? Зарегистрируйтесь на сайте (ссылка на регистрацию). Pirat.ca - самый быстрый торрент трекер в рунете!

Как скачивать  ·   Что такое торрент  ·   Рейтинг и ограничения

Пост 18-Дек-2011 08:42 (спустя 10 часов)

Топик был перенесен из форума Наше Кино в форум Российские фильмы

Skinwalker
 

гаррисмолл

Шкипер

Пост 22-Янв-2012 17:48 (спустя 1 месяц 4 дня)

[Q] 

Фильм - классика российского кино.
[Профиль]  [ЛС] 

Oleg Dobry

Штурман

Пост 31-Дек-2012 11:24 (спустя 11 месяцев 8 дней)

[Q] 

классный новогодний фильм!
[Профиль]  [ЛС] 

and48

Корсар

169

Пост 02-Янв-2013 00:26 (спустя 1 день 13 часов)

[Q] 

Хороший, добрый фильм.
[Профиль]  [ЛС] 

Nemetz

Корсар

Пост 14-Янв-2013 23:54 (спустя 12 дней)

[Q] 

фильм детства
[Профиль]  [ЛС] 

UncleFather

Легенда

Пост 23-Мар-2013 16:08 (спустя 2 месяца 8 дней)

[Q] 


_________________
Одни боялись Пью, другие - Билли Бонса, а меня... меня боялся сам Флинт
[Профиль]  [ЛС] 

Loxly

Гроза морей

Пост 09-Янв-2015 11:19 (спустя 1 год 9 месяцев)

[Q] 

Смотреть обязательно!
Сейчас такого не делают...
[Профиль]  [ЛС] 
Показать сообщения:    
Ответить на тему

Текущее время: Сегодня 23:21

Часовой пояс: GMT + 4



Вы не можете начинать темы
Вы не можете отвечать на сообщения
Вы не можете редактировать свои сообщения
Вы не можете удалять свои сообщения
Вы не можете голосовать в опросах
Вы не можете прикреплять файлы к сообщениям
Вы не можете скачивать файлы

▼ Вниз