ML
     
  Уважаемый Гость!
Вы можете поддержать проект и зарегистрироваться у наших партнеров - онлайн-стратегия MyLands. При регистрации в игре Вы получите код, который сможете активировать после регистрации на pirat.ca и получить 1000 дублонов.

Ваш код:
062e2babcc491faeb40d496cf9a498ac3df6cdd0
 
     

День учителя (Сергей Мокрицкий) [2012 г., драма, DVDRip]

Ответить на тему
 
Автор
Сообщение

Пост 23-Янв-2013 11:38

[Q] 

ara1205

-День учителя-- Производство: Россия
Режиссер: Сергей Мокрицкий
Жанр: драма
Год выпуска: 2012 г.
Продолжительность: 01:18:22
Дата выхода DVD: 21 января 2013-В ролях: Анатолий Кот, Светлана Немоляева, Ирина Рахманова, Людмила Титова, Андрей Бильжо, Алла Юганова, Лиза Зарубина-Описание: Один день из жизни типичного персонажа российской истории, «маленького человека» — учителя русского языка и литературы в школе. Интеллигент и его проблемы в начале XXI века. Один день из жизни страны, которая когда-то любила Есенина. О том, что у неё еще есть надежда…-Сэмпл КиноПоиск-Качество видео: DVDRip
Контейнер: AVI
Видео кодек: XviD
Аудио кодек: AC3
Видео: 720x400, 2039 kbps, 25 fps, 0.283 bpp
Аудио: 48 kHz, AC3 Dolby Digital, 3/2 (L,C,R,l,r) + LFE ch, ~448 kbps
Cубтитры: отсутствуют-
Общее
Полное имя : C:\Users\Ромик\Pictures\Посмотреть\День учителя\Den.uchitelya.2012.O_DVDRip.avi
Формат : AVI
Формат/Информация : Audio Video Interleave
Размер файла : 1,37 Гбайт
Продолжительность : 1 ч. 18 м.
Общий поток : 2496 Кбит/сек
Название фильма : Den.uchitelya.2012.O.DVDRip
Жанр : Drama
Программа кодирования : VirtualDubMod 1.5.10.3 | www.virtualdub-fr.org || (build 2550/release)
Формат оригинала/Имя : Movie
Видео
Идентификатор : 0
Формат : MPEG-4 Visual
Профиль формата : Advanced [email protected]
Параметр BVOP формата : 1
Параметр QPel формата : Нет
Параметр GMC формата : Без точки перехода
Параметр матрицы формата : Выборочная
Идентификатор кодека : XVID
Идентификатор кодека/Подсказка : XviD
Продолжительность : 1 ч. 18 м.
Битрейт : 2039 Кбит/сек
Ширина : 720 пикселей
Высота : 400 пикселей
Соотношение сторон : 16:9
Частота кадров : 25,000 кадров/сек
Цветовое пространство : YUV
Субдискретизация насыщенности : 4:2:0
Битовая глубина : 8 бит
Тип развёртки : Прогрессивная
Метод сжатия : С потерями
Бит/(Пиксели*Кадры) : 0.283
Размер потока : 1,12 Гбайт (82%)
Библиотека кодирования : XviD 1.2.1 (UTC 2008-12-04)
Аудио
Идентификатор : 1
Формат : AC-3
Формат/Информация : Audio Coding 3
Расширение режима : CM (complete main)
Параметр Endianness формата : Big
Идентификатор кодека : 2000
Продолжительность : 1 ч. 18 м.
Вид битрейта : Постоянный
Битрейт : 448 Кбит/сек
Каналы : 6 каналов
Расположение каналов : Front: L C R, Side: L R, LFE
Частота : 48,0 КГц
Битовая глубина : 16 бит
Метод сжатия : С потерями
Размер потока : 251 Мбайт (18%)
Выравнивание : Разделение по промежуткам
Продолжительность промежутка : 40 мс. (1,00 видеокадр)
Время предзагрузки промежутка : 500 мс.
-
-
-
Download / Скачать

Хотите скачать бесплатно? Зарегистрируйтесь на сайте (ссылка на регистрацию). Pirat.ca - самый быстрый торрент трекер в рунете!

Как скачивать  ·   Что такое торрент  ·   Рейтинг и ограничения

EvilPuzatik

Корсар

Пост 23-Янв-2013 13:13 (спустя 1 час 34 минуты)

[Q] 


_________________
[Профиль]  [ЛС] 

_koba

Легенда

Пост 28-Янв-2013 01:29 (спустя 4 дня)

[Q] 

Вы меня простите, но это не фильм, это даже не искусство близко, это набор картинок с политической подоплекой. Даже гавном это все называть как похвалить.
[Профиль]  [ЛС] 

sergeev_igor1977

Морской Волк

Пост 28-Янв-2013 13:33 (спустя 12 часов)

[Q] 

du dz ec
[Профиль]  [ЛС] 

saturn77777444

Лоцман

Пост 29-Янв-2013 14:20 (спустя 1 день)

[Q] 

хороший фильм. эпизод со стихотворениями в супермаркете очень понравился)
[Профиль]  [ЛС] 

_koba

Легенда

Пост 31-Янв-2013 01:03 (спустя 1 день 10 часов)

[Q] 

314543хороший фильм. эпизод со стихотворениями в супермаркете очень понравился)
ага , хороший ... коровьи лепешки для растений тоже хорошо...
[Профиль]  [ЛС] 

yulya230784

Морской Волк

927

Пост 17-Фев-2013 19:24 (спустя 17 дней)

[Q] 

[Профиль]  [ЛС] 

Sergi4

Гроза морей

Пост 18-Фев-2013 11:49 (спустя 16 часов)

[Q] 

[Профиль]  [ЛС] 

markuzek

Шкипер

Пост 03-Мар-2013 00:20 (спустя 12 дней)

[Q] 

anime32 Писимистичный фильм
[Профиль]  [ЛС] 

khvorovs

Шкипер

13

Пост 07-Мар-2013 17:55 (спустя 4 дня)

[Q] 

[Профиль]  [ЛС] 
Показать сообщения:    
Ответить на тему

Текущее время: Сегодня 17:39

Часовой пояс: GMT + 4



Вы не можете начинать темы
Вы не можете отвечать на сообщения
Вы не можете редактировать свои сообщения
Вы не можете удалять свои сообщения
Вы не можете голосовать в опросах
Вы не можете прикреплять файлы к сообщениям
Вы не можете скачивать файлы

▼ Вниз