ML
     
  Уважаемый Гость!
Вы можете поддержать проект и зарегистрироваться у наших партнеров - онлайн-стратегия MyLands. При регистрации в игре Вы получите код, который сможете активировать после регистрации на pirat.ca и получить 1000 дублонов.

Ваш код:
062e2babcc491faeb40d496cf9a498ac3df6cdd0
 
     

Удиви меня (Андрей Щербинин) [2012 г., драма, мелодрама, криминал, SATRip]

Ответить на тему
 
Автор
Сообщение

Пост 26-Янв-2013 11:13

[Q] 

cergo

Гроза морей

-Удиви меня-- Производство: Россия, Мотор Фильм Студия
Режиссер: Андрей Щербинин
Жанр: драма, мелодрама, криминал
Год выпуска: 2012 г.
Продолжительность: 01:25:54
Российская премьера: 22 января 2012
В ролях: Светлана Ходченкова, Петр Красилов, Борис Галкин, Алексей Аникин, Наталья Бардо, Дмитрий Блажко, Вячеслав Бухаров, Роман Гапанюк, Ирина Гопоненко, Василий Заболотный, Дмирий Заволокин, Маргарита Иванова-Донская, Мария Киррилова
-Описание: Герои фильма — два молодых современных человека Роман Зубов и Багира. Он, майор особого отдела МУРа, ищет преступника, который шантажом и обманом вымогает у богатых людей крупные суммы денег. Она — его любимая девушка и… та самая преступница, которую он пытается найти. Не догадываясь об этом, Романов идет по ее следу, но Багира все время на шаг впереди. В ходе расследования Зубов узнает, что все деньги преступник тратит не на себя и свою выгоду, а отдает тем, кто действительно нуждается в этих деньгах: мигранты, мать-одиночка, которая пытается спасти своего ребенка и найти денег на дорогостоящую операцию. И это странное поведение — не единственное, чем Багира удивит Романа в этой «игре». Сможет ли он в ответ удивить ее и помочь?-Сэмпл КиноПоиск
Качество видео: SATRip
Контейнер: AVI
Видео кодек: XviD
Аудио кодек: MP3
Видео: 704x384 (1.83:1), 25 fps, XviD build 50 ~1788 kbps avg, 0.26 bit/pixel
Аудио: 48 kHz, MPEG Layer 3, 2 ch, ~128.00 kbps avg
Cубтитры: отсутствуют
Общее
Полное имя : D:\Архив\ФИЛЬМЫ\Udivi.menja.2012.XviD.SATRip.avi
Формат : AVI
Формат/Информация : Audio Video Interleave
Размер файла : 1,16 Гбайт
Продолжительность : 1 ч. 25 м.
Общий поток : 1926 Кбит/сек
Программа кодирования : MEncoder UNKNOWN-4.2.4
Библиотека кодирования : Boilsoft AVI tool build 1/release
Видео
Идентификатор : 0
Формат : MPEG-4 Visual
Профиль формата : [email protected]
Параметр BVOP формата : Нет
Параметр QPel формата : Нет
Параметр GMC формата : Без точки перехода
Параметр матрицы формата : Default (H.263)
Идентификатор кодека : XVID
Идентификатор кодека/Подсказка : XviD
Продолжительность : 1 ч. 25 м.
Битрейт : 1788 Кбит/сек
Ширина : 704 пикселя
Высота : 384 пикселя
Соотношение сторон : 16:9
Частота кадров : 25,000 кадров/сек
Цветовое пространство : YUV
Субдискретизация насыщенности : 4:2:0
Битовая глубина : 8 бит
Тип развёртки : Прогрессивная
Метод сжатия : С потерями
Бит/(Пиксели*Кадры) : 0.265
Размер потока : 1,07 Гбайт (93%)
Библиотека кодирования : XviD 1.2.1 (UTC 2008-12-04)
Аудио
Идентификатор : 1
Формат : MPEG Audio
Версия формата : Version 1
Профиль формата : Layer 3
Режим : Joint stereo
Расширение режима : MS Stereo
Идентификатор кодека : 55
Идентификатор кодека/Подсказка : MP3
Продолжительность : 1 ч. 25 м.
Вид битрейта : Постоянный
Битрейт : 128 Кбит/сек
Каналы : 2 канала
Частота : 48,0 КГц
Метод сжатия : С потерями
Задержка видео : 20 мс.
Размер потока : 78,6 Мбайт (7%)
Выравнивание : Разделение по промежуткам
Продолжительность промежутка : 40 мс. (1,00 видеокадр)
Время предзагрузки промежутка : 500 мс.
Download / Скачать

Хотите скачать бесплатно? Зарегистрируйтесь на сайте (ссылка на регистрацию). Pirat.ca - самый быстрый торрент трекер в рунете!

Как скачивать  ·   Что такое торрент  ·   Рейтинг и ограничения

valeriy_palych

Морской Волк

Пост 01-Фев-2013 14:11 (спустя 6 дней)

[Q] 

Что-то и коментов никаких нет - типа не стоит того?
[Профиль]  [ЛС] 

Sergi4

Гроза морей

Пост 18-Фев-2013 14:13 (спустя 17 дней)

[Q] 

[Профиль]  [ЛС] 

Nemetz

Корсар

Пост 11-Апр-2013 07:37 (спустя 1 месяц 20 дней)

[Q] 

Как фильм то? Отпишитесь кто смотрел.. Ходченкова ничего так))
[Профиль]  [ЛС] 
Показать сообщения:    
Ответить на тему

Текущее время: Сегодня 17:41

Часовой пояс: GMT + 4



Вы не можете начинать темы
Вы не можете отвечать на сообщения
Вы не можете редактировать свои сообщения
Вы не можете удалять свои сообщения
Вы не можете голосовать в опросах
Вы не можете прикреплять файлы к сообщениям
Вы не можете скачивать файлы

▼ Вниз