ML
     
  Уважаемый Гость!
Вы можете поддержать проект и зарегистрироваться у наших партнеров - онлайн-стратегия MyLands. При регистрации в игре Вы получите код, который сможете активировать после регистрации на pirat.ca и получить 1000 дублонов.

Ваш код:
156f85568ae63e45e07ac461c96a83ba1a876b0a
 
     

С новым годом, мамы! (Сарик Андреасян, Артем Аксененко, Дмитрий Грачев) [2012 г., комедия, семейный, HDRip][лицензия]

Ответить на тему
 
Автор
Сообщение

Пост 26-Янв-2013 23:03

[Q] 

Green

Шкипер

-С новым годом, мамы!-- Производство: Россия / Enjoy Movies
Режиссер: Сарик Андреасян, Артем Аксененко, Дмитрий Грачев
Жанр: комедия, семейный
Год выпуска: 2012 г.
Продолжительность: 01:24:20
Российская премьера: 27 декабря 2012
Дата выхода DVD: 21 января 2013, «Новый Диск»
Дата выхода Blu-Ray: 28 января 2013, «Новый Диск»-В ролях: Елизавета Боярская, Максим Матвеев, Павел Воля, Ирина Розанова, Ален Делон, Екатерина Вилкова, Светлана Иванова, Максим Виторган, Константин Крюков, Гарик Харламов-Описание: В новой ленте зрители увидят новые истории и новые приключения новых героев, объединенных одним чувством — любовью к МАМЕ. 5 новелл. Смешные и трогательные, лиричные и комичные — каждая новелла расскажет историю мамы и ребенка, двух самых близких людей на свете. Ведь что бы ни происходило, мама всегда остается тем человеком, который будет любить всегда и несмотря ни на что…-Сэмпл | КиноПоиск
Качество видео: HDRip
Контейнер: AVI
Видео кодек: XviD
Аудио кодек: AC3
Видео: 720x304 (2.37:1), 24 fps, XviD build 50 ~1862 kbps avg, 0.35 bit/pixel
Аудио: 48 kHz, AC3 Dolby Digital, 3/2 (L,C,R,l,r) + LFE ch, ~448 kbps
Cубтитры: отсутствуют
Общее
Полное имя : D:\S.novym.godom.mamy.2012.O.HDRip.avi
Формат : AVI
Формат/Информация : Audio Video Interleave
Размер файла : 1,37 Гбайт
Продолжительность : 1 ч. 24 м.
Общий поток : 2320 Кбит/сек
Название фильма : S.novym.godom.mamy.2012.O.HDRip.
Жанр : Comedy | Family
Программа кодирования : VirtualDubMod 1.5.10.3 | www.virtualdub-fr.org || (build 2550/release)
Формат оригинала/Имя : Movie
Видео
Идентификатор : 0
Формат : MPEG-4 Visual
Профиль формата : Advanced [email protected]
Параметр BVOP формата : 1
Параметр QPel формата : Нет
Параметр GMC формата : Без точки перехода
Параметр матрицы формата : Выборочная
Идентификатор кодека : XVID
Идентификатор кодека/Подсказка : XviD
Продолжительность : 1 ч. 24 м.
Битрейт : 1863 Кбит/сек
Ширина : 720 пикселей
Высота : 304 пикселя
Соотношение сторон : 2,35:1
Частота кадров : 24,000 кадра/сек
Цветовое пространство : YUV
Субдискретизация насыщенности : 4:2:0
Битовая глубина : 8 бит
Тип развёртки : Прогрессивная
Метод сжатия : С потерями
Бит/(Пиксели*Кадры) : 0.355
Размер потока : 1,10 Гбайт (80%)
Библиотека кодирования : XviD 1.2.1 (UTC 2008-12-04)
Аудио
Идентификатор : 1
Формат : AC-3
Формат/Информация : Audio Coding 3
Расширение режима : CM (complete main)
Параметр Endianness формата : Big
Идентификатор кодека : 2000
Продолжительность : 1 ч. 24 м.
Вид битрейта : Постоянный
Битрейт : 448 Кбит/сек
Каналы : 6 каналов
Расположение каналов : Front: L C R, Side: L R, LFE
Частота : 48,0 КГц
Битовая глубина : 16 бит
Метод сжатия : С потерями
Размер потока : 270 Мбайт (19%)
Выравнивание : Разделение по промежуткам
Продолжительность промежутка : 42 мс. (1,00 видеокадр)
Время предзагрузки промежутка : 500 мс.
Download / Скачать

Хотите скачать бесплатно? Зарегистрируйтесь на сайте (ссылка на регистрацию). Pirat.ca - самый быстрый торрент трекер в рунете!

Как скачивать  ·   Что такое торрент  ·   Рейтинг и ограничения



Последний раз редактировалось: Green (2013-01-27 09:56), всего редактировалось 3 раз(а)

Tolich2

Морской Волк

Пост 26-Янв-2013 23:16 (спустя 12 минут)

[Q] 

как фильм? очередной российский "шедевр"?

_________________
[Профиль]  [ЛС] 

pum

Корсар

Пост 26-Янв-2013 23:26 (спустя 10 минут)

[Q] 

Мне понравилось, легко и смешно)
[Профиль]  [ЛС] 

Пост 27-Янв-2013 10:09 (спустя 10 часов)

Топик был перенесен из форума Наше кино (Трюм) в форум Новинки (HD|DVD|BD|TV|SAT|PDTV| - Rips)

ara1205
 

infiniti-r

Корсар

Пост 28-Янв-2013 19:54 (спустя 1 день 20 часов)

[Q] 

[Профиль]  [ЛС] 

jocose

Морской Волк

Пост 30-Янв-2013 01:18 (спустя 1 день 5 часов)

[Q] 

фильм типа ёлок, юмора маловато
[Профиль]  [ЛС] 

slavix

Корсар

Пост 01-Фев-2013 01:22 (спустя 2 дня)

[Q] 

так себе
[Профиль]  [ЛС] 

valeriy_palych

Морской Волк

Пост 01-Фев-2013 14:08 (спустя 12 часов)

[Q] 

В духе первого фильма "С 8 Марта" - слабовато.
[Профиль]  [ЛС] 

Garik1223

Лоцман

Пост 02-Фев-2013 13:31 (спустя 23 часа)

[Q] 

Хороший фильм для всей семьи!!!!!!!!
[Профиль]  [ЛС] 

Hugin

Морской Волк

163

Пост 16-Мар-2013 22:54 (спустя 1 месяц 14 дней)

[Q] 

Спасибо! Заценим.
Мамы - хороший фильм. надеюсь и этот не подачает
[Профиль]  [ЛС] 

TomCatGun

Флибустьер

Пост 07-Апр-2013 10:05 (спустя 21 день)

[Q] 

[Профиль]  [ЛС] 

UA4HQW

Флибустьер

2528

Пост 02-Дек-2013 11:22 (спустя 7 месяцев 25 дней)

[Q] 

Милый добрый фильм.
Автору респект!!!
[Профиль]  [ЛС] 

Евгений Чередников

Морской Волк

Пост 13-Фев-2014 23:26 (спустя 2 месяца 11 дней)

[Q] 

Спасибо!!! Раздающему респект!

_________________
[Профиль]  [ЛС] 
Показать сообщения:    
Ответить на тему

Текущее время: Сегодня 22:02

Часовой пояс: GMT + 4



Вы не можете начинать темы
Вы не можете отвечать на сообщения
Вы не можете редактировать свои сообщения
Вы не можете удалять свои сообщения
Вы не можете голосовать в опросах
Вы не можете прикреплять файлы к сообщениям
Вы не можете скачивать файлы

▼ Вниз