ML
     
  Уважаемый Гость!
Вы можете поддержать проект и зарегистрироваться у наших партнеров - онлайн-стратегия MyLands. При регистрации в игре Вы получите код, который сможете активировать после регистрации на pirat.ca и получить 1000 дублонов.

Ваш код:
4399ab8611ee7f8a22949d2ee7634160dd2db7e0
 
     

Каникулы строгого режима (Игорь Зайцев) [2009 г., комедия, приключения, детектив, DVDRip]

Ответить на тему
 
Автор
Сообщение

Пост 27-Янв-2013 11:50

[Q] 

MadDog66

Корсар

-Каникулы строгого режима-- Производство: Россия, Дирекция кино, Buzz Production
Режиссер: Игорь Зайцев
Жанр: комедия, приключения, детектив
Год выпуска: 2009 г.
Продолжительность: 01:49:10
В ролях: Сергей Безруков (Сумароков/Сумрак), Дмитрий Дюжев (Кольцов), Алена Бабенко, Сабина Ахмедова (Лена Бичкина), Владимир Меньшов, Алексей Кравченко, Станислав Лесной (Опарыш), Александр Лыков, Кирилл Плетнев, Роман Мадянов, Людмила Полякова, Михаил Богдасаров, Малхаз Абуладзе-Описание: Виктор Сумороков — матёрый вор-рецидивист по кличке Сумрак, «белый зек», авторитет для всех заключённых.
Евгений Кольцов — бывший сотрудник МВД, заслуженный герой, воевавший в Чечне, случайно убил коллегу по работе.
И вот, когда «бывший мент» сел в тюрьму, начальник тюрьмы Вышкин пришёл к Сумраку с просьбой защитить «мента» от напастей и угроз заключённых. Но зек по кличке Шаман, посаженный за убийство, тоже был внедрён другим начальником тюрьмы следить за Кольцовым.
Завязывается драка, и Кольцов понимает, что не сможет выжить в такой обставновке. Тогда он просит своего друга, опера Серёжу Гагарина, помочь убежать из тюрьмы. Доверяя Сумраку, который в процессе защиты был ранен спецназом, он взял его с собой.
И вот Сумрак и Кольцов очутились в пионерлагере «Юнга», где недоставало мужчин-вожатых. Теперь их зовут Виктор Сергеевич и Евгений Дмитриевич.
Там дети научатся уважать взрослых, Кольцов найдёт общий язык с вожатыми лагеря, а бандит Сумрак станет добрым воспитателем и влюбится в предоподавателя лицея…-КиноПоиск
Качество видео: DVDRip
Контейнер: AVI
Видео кодек: XviD
Аудио кодек: AC3
Видео: 704x304 (2.32:1), 25 fps, XviD MPEG-4 ~1444 kbps avg, 0.27 bit/pixel
Аудио: 48 kHz, AC3 Dolby Digital, 3/2 (L,C,R,l,r) + LFE ch, ~448.00 kbps avg
Cубтитры: отсутствуют
General
Complete name : C:\Users\Artem\Desktop\Раздача\Kanikuly.2009.avi
Format : AVI
Format/Info : Audio Video Interleave
File size : 1.46 GiB
Duration : 1h 49mn
Overall bit rate : 1 902 Kbps
Movie name : Каникулы строгого режима
Director : zim2001
Writing application : VirtualDubMod 1.5.10.2 (build 2540/release)
Video #0
ID : 0
Format : MPEG-4 Visual
Format profile : Advanced [email protected]
Format settings, BVOP : 2
Format settings, QPel : No
Format settings, GMC : No warppoints
Format settings, Matrix : Default (MPEG)
Muxing mode : Packed bitstream
Codec ID : XVID
Codec ID/Hint : XviD
Duration : 1h 49mn
Bit rate : 1 444 Kbps
Width : 704 pixels
Height : 304 pixels
Display aspect ratio : 2.35:1
Frame rate : 25.000 fps
Color space : YUV
Chroma subsampling : 4:2:0
Bit depth : 8 bits
Scan type : Progressive
Compression mode : Lossy
Bits/(Pixel*Frame) : 0.270
Stream size : 1.11 GiB (76%)
Writing library : XviD 1.2.0.dev47 (UTC 2006-11-01)
Audio #1
ID : 1
Format : AC-3
Format/Info : Audio Coding 3
Mode extension : CM (complete main)
Codec ID : 2000
Duration : 1h 49mn
Bit rate mode : Constant
Bit rate : 448 Kbps
Channel(s) : 6 channels
Channel positions : Front: L C R, Side: L R, LFE
Sampling rate : 48.0 KHz
Bit depth : 16 bits
Compression mode : Lossy
Stream size : 352 MiB (24%)
Alignment : Split accross interleaves
Interleave, duration : 40 ms (1.00 video frame)
Interleave, preload duration : 500 ms



Download / Скачать

Хотите скачать бесплатно? Зарегистрируйтесь на сайте (ссылка на регистрацию). Pirat.ca - самый быстрый торрент трекер в рунете!

Как скачивать  ·   Что такое торрент  ·   Рейтинг и ограничения



Последний раз редактировалось: MadDog66 (2013-01-27 17:01), всего редактировалось 2 раз(а)

Пост 27-Янв-2013 17:39 (спустя 5 часов)

Топик был перенесен из форума Наше кино (Трюм) в форум Российские фильмы

erchine
 

Bile

4188

Пост 03-Фев-2013 01:53 (спустя 6 дней)

[Q] 

Неплохой фильм, можно посмотреть.
[Профиль]  [ЛС] 

csusb

Лоцман

Пост 17-Фев-2013 12:08 (спустя 14 дней)

[Q] 

Благодаря - разкошен филм
[Профиль]  [ЛС] 

Sergi4

Гроза морей

Пост 18-Фев-2013 13:22 (спустя 1 день 1 час)

[Q] 

На форуме  [Профиль]  [ЛС] 

hohol541

Корсар

Пост 08-Мар-2013 15:36 (спустя 18 дней)

[Q] 

Бред,но лёгкий и весёлый.
[Профиль]  [ЛС] 

Elly_77

Морской Волк

Пост 19-Мар-2013 14:28 (спустя 10 дней)

[Q] 

Смотреть конечно можно, но книга гораздо забавнее.
[Профиль]  [ЛС] 

juk_777

Шкипер

Пост 23-Май-2014 13:17 (спустя 1 год 2 месяца)

[Q] 

фильм супер .. смотрел несколько раз
[Профиль]  [ЛС] 

U-858

Флибустьер

Пост 15-Окт-2014 22:34 (спустя 4 месяца 23 дня)

[Q] 

хорошая комедия ...........
[Профиль]  [ЛС] 
Показать сообщения:    
Ответить на тему

Текущее время: Сегодня 10:48

Часовой пояс: GMT + 4



Вы не можете начинать темы
Вы не можете отвечать на сообщения
Вы не можете редактировать свои сообщения
Вы не можете удалять свои сообщения
Вы не можете голосовать в опросах
Вы не можете прикреплять файлы к сообщениям
Вы не можете скачивать файлы

▼ Вниз