ML
     
  Уважаемый Гость!
Вы можете поддержать проект и зарегистрироваться у наших партнеров - онлайн-стратегия MyLands. При регистрации в игре Вы получите код, который сможете активировать после регистрации на pirat.ca и получить 1000 дублонов.

Ваш код:
4855957e17f50c5c1236a0f8c4492b2b0bba00a0
 
     

Я его слепила (Михаил Жерневский) [2012 г., мелодрама, SATRip]

Ответить на тему
 
Автор
Сообщение

Пост 27-Янв-2013 19:47

[Q] 

cergo

Гроза морей

-Я его слепила-- Производство: Россия, Медиапрофсоюз
Режиссер: Михаил Жерневский
Жанр: мелодрама
Год выпуска: 2012 г.
Продолжительность: 01:37:14
В ролях:
Олеся Фаттахова, Сергей Мухин, Татьяна Чердынцева, Ольга Клебанович, Дмитрий Мухин, Евгений Никитин, Денис Паршин, Виктор Синайский
-Описание:
Однажды к Кате, которая работает в свадебном салоне, обратилась подруга с необычной просьбой. Лера влюблена в коллегу Гришу. Он обычный программист и немного недотепа. У Леры очень богатый отец и он конечно хочет найти Лере достойного жениха. В связи с этим Лера просит Катю «поднатаскать» Гришу, чтобы он стал первоклассным женихом. Только вот сам Гриша ни о чем таком даже и не задумывается и не знает. Молодые люди начинают проводить много времени вместе и Катя понимает, что влюблена в Гришу. И что же ей теперь делать?
-
Качество видео: SATRip
Контейнер: AVI
Видео кодек: DivX
Аудио кодек: MP3
Видео: 704x400 (1.76:1), 25 fps, DivX Codec 6.8.5/6.9.1 ~2050 kbps avg, 0.29 bit/pixel
Аудио: 48 kHz, MPEG Layer 3, 2 ch, ~128.00 kbps avg
Cубтитры: отсутствуют
Общее
Полное имя : D:\Архив\ФИЛЬМЫ\Ya.ego.slepila.2013.avi
Формат : AVI
Формат/Информация : Audio Video Interleave
Размер файла : 1,49 Гбайт
Продолжительность : 1 ч. 37 м.
Общий поток : 2187 Кбит/сек
Программа кодирования : VirtualDubMod 1.5.10.2 (build 2540/release)
Библиотека кодирования : VirtualDub build 29808/release
Видео
Идентификатор : 0
Формат : MPEG-4 Visual
Параметр BVOP формата : Нет
Параметр QPel формата : Нет
Параметр GMC формата : Без точки перехода
Параметр матрицы формата : Default (H.263)
Идентификатор кодека : DX50
Идентификатор кодека/Подсказка : DivX 5
Продолжительность : 1 ч. 37 м.
Битрейт : 2050 Кбит/сек
Ширина : 704 пикселя
Высота : 400 пикселей
Соотношение сторон : 16:9
Частота кадров : 25,000 кадров/сек
Цветовое пространство : YUV
Субдискретизация насыщенности : 4:2:0
Битовая глубина : 8 бит
Тип развёртки : Прогрессивная
Метод сжатия : С потерями
Бит/(Пиксели*Кадры) : 0.291
Размер потока : 1,39 Гбайт (94%)
Библиотека кодирования : DivX 6.8.5 (UTC 2009-08-20)
Аудио
Идентификатор : 1
Формат : MPEG Audio
Версия формата : Version 1
Профиль формата : Layer 3
Режим : Joint stereo
Идентификатор кодека : 55
Идентификатор кодека/Подсказка : MP3
Продолжительность : 1 ч. 37 м.
Вид битрейта : Постоянный
Битрейт : 128 Кбит/сек
Каналы : 2 канала
Частота : 48,0 КГц
Метод сжатия : С потерями
Размер потока : 89,0 Мбайт (6%)
Выравнивание : Соединение по промежуткам
Продолжительность промежутка : 40 мс. (1,00 видеокадр)
Время предзагрузки промежутка : 504 мс.
Библиотека кодирования : LAME3.90.3
Download / Скачать

Хотите скачать бесплатно? Зарегистрируйтесь на сайте (ссылка на регистрацию). Pirat.ca - самый быстрый торрент трекер в рунете!

Как скачивать  ·   Что такое торрент  ·   Рейтинг и ограничения

infiniti-r

Корсар

Пост 28-Янв-2013 19:49 (спустя 1 день)

[Q] 

Спасибо!!! Посмотрим!!!
[Профиль]  [ЛС] 

sergeev_igor1977

Морской Волк

Пост 29-Янв-2013 19:02 (спустя 23 часа)

[Q] 

[Профиль]  [ЛС] 

elena.vorobyeva

Морской Волк

Пост 31-Янв-2013 04:54 (спустя 1 день 9 часов)

[Q] 

[Профиль]  [ЛС] 
Показать сообщения:    
Ответить на тему

Текущее время: Сегодня 06:12

Часовой пояс: GMT + 4



Вы не можете начинать темы
Вы не можете отвечать на сообщения
Вы не можете редактировать свои сообщения
Вы не можете удалять свои сообщения
Вы не можете голосовать в опросах
Вы не можете прикреплять файлы к сообщениям
Вы не можете скачивать файлы

▼ Вниз