ML
     
  Уважаемый Гость!
Вы можете поддержать проект и зарегистрироваться у наших партнеров - онлайн-стратегия MyLands. При регистрации в игре Вы получите код, который сможете активировать после регистрации на pirat.ca и получить 1000 дублонов.

Ваш код:
4399ab8611ee7f8a22949d2ee7634160dd2db7e0
 
     

Темный мир (Антон Мегердичев) [2010 г., триллер, фэнтези, BDRip]

Ответить на тему
 
Автор
Сообщение

Пост 30-Янв-2013 21:05

[Q] 

Bile

-Темный мир--
Производство: Central Partnership,Россия
Режиссер: Антон Мегердичев
Жанр: триллер, фэнтези
Год выпуска: 2010 г.
Продолжительность: 01:45:24

В ролях: Светлана Иванова , Иван Жидков , Елена Панова, Сергей Угрюмов, Владимир Носик, Илья Алексеев, Мария Кожевникова , Ксения Радченко, Захар Хунгуреев, Татьяна Кузнецова, Евгений Атарик
-Описание: Группа студентов отправляется в экспедицию по глухим северным деревням. В одной из них главная героиня - девушка, увлеченная мистикой и романтикой загробного мира - находит древний могильник, а в нем - магический щит. Дотронувшись до щита, она пробуждает гнев духов прошлого и приобретает сверхчеловеческие способности. Теперь студентам придется вступить в противостояние с силами зла.-
Качество видео: BDRip
Контейнер: AVI
Видео кодек: XviD
Аудио кодек: AC3
Видео: 688x384 (1.79:1), 23.976 fps, XviD build 56 ~1584 kbps avg, 0.25 bit/pixel
Аудио: 48 kHz, AC3 Dolby Digital, 3/2 (L,C,R,l,r) + LFE ch, ~384.00 kbps avg
Cубтитры: отсутствуют
Общее
Полное имя : D:\Фильмы\Temnyy.mir.[pirat.ca].avi
Формат : AVI
Формат/Информация : Audio Video Interleave
Размер файла : 1,46 Гбайт
Продолжительность : 1 ч. 45 м.
Общий поток : 1978 Кбит/сек
Режиссёр : zim2001
Программа кодирования : VirtualDubMod 1.5.10.2 (build 2540/release)
Видео
Идентификатор : 0
Формат : MPEG-4 Visual
Профиль формата : Advanced [email protected]
Параметр BVOP формата : 2
Параметр QPel формата : Нет
Параметр GMC формата : Без точки перехода
Параметр матрицы формата : Выборочная
Идентификатор кодека : XVID
Идентификатор кодека/Подсказка : XviD
Продолжительность : 1 ч. 45 м.
Битрейт : 1585 Кбит/сек
Ширина : 688 пикселей
Высота : 384 пикселя
Соотношение сторон : 16:9
Частота кадров : 23,976 кадра/сек
Цветовое пространство : YUV
Субдискретизация насыщенности : 4:2:0
Битовая глубина : 8 бит
Тип развёртки : Прогрессивная
Метод сжатия : С потерями
Бит/(Пиксели*Кадры) : 0.250
Размер потока : 1,17 Гбайт (80%)
Библиотека кодирования : XviD 56
Аудио
Идентификатор : 1
Формат : AC-3
Формат/Информация : Audio Coding 3
Расширение режима : CM (complete main)
Параметр Endianness формата : Big
Идентификатор кодека : 2000
Продолжительность : 1 ч. 45 м.
Вид битрейта : Постоянный
Битрейт : 384 Кбит/сек
Каналы : 6 каналов
Расположение каналов : Front: L C R, Side: L R, LFE
Частота : 48,0 КГц
Битовая глубина : 16 бит
Метод сжатия : С потерями
Размер потока : 290 Мбайт (19%)
Выравнивание : Разделение по промежуткам
Продолжительность промежутка : 42 мс. (1,00 видеокадр)
Время предзагрузки промежутка : 500 мс.
Download / Скачать

Хотите скачать бесплатно? Зарегистрируйтесь на сайте (ссылка на регистрацию). Pirat.ca - самый быстрый торрент трекер в рунете!

Как скачивать  ·   Что такое торрент  ·   Рейтинг и ограничения



Последний раз редактировалось: Bile (2013-01-30 22:00), всего редактировалось 1 раз

Пост 30-Янв-2013 22:05 (спустя 1 час)

Топик был перенесен из форума Наше кино (Трюм) в форум Российские фильмы

ara1205
 

Sergi4

Гроза морей

Пост 18-Фев-2013 14:19 (спустя 18 дней)

[Q] 

[Профиль]  [ЛС] 

hell_angel_666

Лоцман

Пост 05-Мар-2013 16:46 (спустя 15 дней)

[Q] 

Вернитесь на раздачу, плз, оч хочется скачать.
[Профиль]  [ЛС] 

ivan.tratil 67

Корсар

Пост 06-Апр-2013 13:40 (спустя 1 месяц)

[Q] 

Это можно не качать
[Профиль]  [ЛС] 

Nemetz

Корсар

Пост 11-Апр-2013 06:13 (спустя 4 дня)

[Q] 

Отбросы по русски?! bj Блин, у наших столько возможностей снимать хорошие фильмы, а они туфты все время мутят пародийную хз на что..
[Профиль]  [ЛС] 
Показать сообщения:    
Ответить на тему

Текущее время: Сегодня 10:44

Часовой пояс: GMT + 4



Вы не можете начинать темы
Вы не можете отвечать на сообщения
Вы не можете редактировать свои сообщения
Вы не можете удалять свои сообщения
Вы не можете голосовать в опросах
Вы не можете прикреплять файлы к сообщениям
Вы не можете скачивать файлы

▼ Вниз