ML
     
  Уважаемый Гость!
Вы можете поддержать проект и зарегистрироваться у наших партнеров - онлайн-стратегия MyLands. При регистрации в игре Вы получите код, который сможете активировать после регистрации на pirat.ca и получить 1000 дублонов.

Ваш код:
aec9a4a936117fb450ba69e519991a0465404b1d
 
     

Живой (Александр Велединский) [2006 г., драма, мистика, DVDRip]

Ответить на тему
 
Автор
Сообщение

Пост 30-Янв-2013 21:53

[Q] 

Bile

-Живой-- Производство: "Пигмалион Продакшн",Россия
Режиссер: Александр Велединский
Жанр: драма, мистика
Год выпуска: 2006 г.
Продолжительность: 01:32:13
В ролях: Андрей Чадов, Максим Лагашкин, Владимир Епифанцев, Алексей Чадов, Александр Робак, Андрей Рапопорт, Виктория Смирнова, Ольга Арнтгольц, Вадим Бурмистров, Нелли Селезнёва (Неведина), Виктор Раков, Алексей Горбунов, Роман Крюков, Анна Уколова, Игорь Куликовский, Любовь Зайцева, Дмитрий Топорков, Александр Васильев, Яник Николенко, Дмитрий Удалов (дублер Андрея Чадова), Владимир Фенченко, Иван Тимченко, Иван Калинин, Анатолий Залюбовский, Дмитрий Лавров, Екатерина Волкова, Андрей Ларин, Ольга Богданова
-Описание: Солдат-контрактник Сергей по прозвищу Кир возвращается с чеченской войны - на протезе (без отрезанной по колено левой ноги) и без друзей, оставшихся на поле боя. Он испытывает чувство вины за гибель товарищей, которые помогли ему остаться в живых. "Гражданка" встречает Кира равнодушием и коррупцией в лице начальника финансового отдела, подписывающего разрешение на выдачу оплаченных кровью денег только после взятки в 10 тысяч рублей. В пылу ссоры Кир убивает жулика-офицера, в панике бежит с места преступления и попадает под машину. Очнувшись, он понимает, что ему опять повезло, он снова живой. А рядом, наяву - его погибшие друзья, которых, кроме него, никто не видит...
-
Качество видео: DVDRip
Контейнер: AVI
Видео кодек: XviD
Аудио кодек: AC3
Видео: 704x384 (1.83:1), 25 fps, XviD 1.2.1, 1675 kbps avg, 0.25 bit/pixel
Аудио: Аудио 1: 48 kHz, AC3 Dolby Digital, 3/2 (L,C,R,l,r) + LFE ch, 384.00 kbps avg (кинотеатральная, без ненормативной лексики)
Аудио 2: 48 kHz, AC3 Dolby Digital, 2/0 (L,R) ch, 192.00 kbps avg (авторская,с ненормативной лексикой)
Cубтитры: отсутствуют
Общее
Полное имя : D:\Фильмы\Zhivoy[pirat.ca].avi
Формат : AVI
Формат/Информация : Audio Video Interleave
Размер файла : 1,46 Гбайт
Продолжительность : 1 ч. 32 м.
Общий поток : 2265 Кбит/сек
Программа кодирования : VirtualDubMod 1.5.10.3 | www.virtualdub-fr.org || (build 2550/release)
Библиотека кодирования : VirtualDubMod build 2550/release
Видео
Идентификатор : 0
Формат : MPEG-4 Visual
Профиль формата : Advanced [email protected]
Параметр BVOP формата : 1
Параметр QPel формата : Нет
Параметр GMC формата : Без точки перехода
Параметр матрицы формата : Выборочная
Режим смешивания : Сжатый битовый поток
Идентификатор кодека : XVID
Идентификатор кодека/Подсказка : XviD
Продолжительность : 1 ч. 32 м.
Битрейт : 1675 Кбит/сек
Ширина : 704 пикселя
Высота : 384 пикселя
Соотношение сторон : 1,85:1
Частота кадров : 25,000 кадров/сек
Цветовое пространство : YUV
Субдискретизация насыщенности : 4:2:0
Битовая глубина : 8 бит
Тип развёртки : Прогрессивная
Метод сжатия : С потерями
Бит/(Пиксели*Кадры) : 0.248
Размер потока : 1,08 Гбайт (74%)
Библиотека кодирования : XviD 1.2.1 (UTC 2008-12-04)
Аудио #1
Идентификатор : 1
Формат : AC-3
Формат/Информация : Audio Coding 3
Расширение режима : CM (complete main)
Параметр Endianness формата : Big
Идентификатор кодека : 2000
Продолжительность : 1 ч. 32 м.
Вид битрейта : Постоянный
Битрейт : 384 Кбит/сек
Каналы : 6 каналов
Расположение каналов : Front: L C R, Side: L R, LFE
Частота : 48,0 КГц
Битовая глубина : 16 бит
Метод сжатия : С потерями
Размер потока : 253 Мбайт (17%)
Выравнивание : Разделение по промежуткам
Продолжительность промежутка : 40 мс. (1,00 видеокадр)
Время предзагрузки промежутка : 500 мс.
Аудио #2
Идентификатор : 2
Формат : AC-3
Формат/Информация : Audio Coding 3
Расширение режима : CM (complete main)
Параметр Endianness формата : Big
Идентификатор кодека : 2000
Продолжительность : 1 ч. 32 м.
Вид битрейта : Постоянный
Битрейт : 192 Кбит/сек
Каналы : 2 канала
Расположение каналов : Front: L R
Частота : 48,0 КГц
Битовая глубина : 16 бит
Метод сжатия : С потерями
Размер потока : 127 Мбайт (8%)
Выравнивание : Разделение по промежуткам
Продолжительность промежутка : 40 мс. (1,00 видеокадр)
Время предзагрузки промежутка : 500 мс.
Download / Скачать

Хотите скачать бесплатно? Зарегистрируйтесь на сайте (ссылка на регистрацию). Pirat.ca - самый быстрый торрент трекер в рунете!

Как скачивать  ·   Что такое торрент  ·   Рейтинг и ограничения



Последний раз редактировалось: Bile (2013-01-30 22:09), всего редактировалось 1 раз

Пост 30-Янв-2013 22:17 (спустя 23 минуты)

Топик был перенесен из форума Наше кино (Трюм) в форум Российские фильмы

ara1205
 

Dante67

Корсар

Пост 31-Янв-2013 03:50 (спустя 5 часов)

[Q] 

[Профиль]  [ЛС] 

Sergi4

Гроза морей

Пост 18-Фев-2013 14:17 (спустя 18 дней)

[Q] 

[Профиль]  [ЛС] 

Elly_77

Морской Волк

Пост 19-Мар-2013 14:23 (спустя 1 месяц 1 день)

[Q] 

Неплохой фильм. Тем более начало у нас в городе снимали)
[Профиль]  [ЛС] 
Показать сообщения:    
Ответить на тему

Текущее время: Сегодня 02:24

Часовой пояс: GMT + 4



Вы не можете начинать темы
Вы не можете отвечать на сообщения
Вы не можете редактировать свои сообщения
Вы не можете удалять свои сообщения
Вы не можете голосовать в опросах
Вы не можете прикреплять файлы к сообщениям
Вы не можете скачивать файлы

▼ Вниз