ML
     
  Уважаемый Гость!
Вы можете поддержать проект и зарегистрироваться у наших партнеров - онлайн-стратегия MyLands. При регистрации в игре Вы получите код, который сможете активировать после регистрации на pirat.ca и получить 1000 дублонов.

Ваш код:
4399ab8611ee7f8a22949d2ee7634160dd2db7e0
 
     

День Д (Михаил Пореченков) [2008 г., боевик, комедия, HDRip]

Ответить на тему
 
Автор
Сообщение

Пост 02-Фев-2013 01:15

[Q] 

Bile

-День Д-- Производство: «ВВП Альянс»,Россия
Режиссер: Михаил Пореченков
Жанр: боевик, комедия
Год выпуска: 2008 г.
Продолжительность: 01:24:26
В ролях: Михаил Пореченков, Александра Урсуляк, Михаил Трухин, Виктор Вержбицкий, Варвара Пореченкова, Максим Дрозд, Боб Шрайбер, Константин Исаев, Сергей Сосновский, Сергей Блудов
-Описание: Майор ВДВ в отставке — Иван — живет в глухом лесу вместе с маленькой дочерью Женей. Однажды на его дом совершается налет, во время которого Женю похищают. От Ивана в обмен на жизнь дочери требуют убить эстонского президента. Герой соглашается, но по дороге в Таллинн сбегает, встречает красавицу-стюардессу Алию. Вместе они захватывают гидроплан и отправляются на остров рядом с Владивостоком, где злодеи держат Женю.
-
Качество видео: HDRip
Контейнер: AVI
Видео кодек: XviD
Аудио кодек: AC3
Видео: 704x304 (2.32:1), 23.976 fps, XviD build 50 ~1862 kbps avg, 0.36 bit/pixel
Аудио: 48 kHz, AC3 Dolby Digital, 3/2 (L,C,R,l,r) + LFE ch, ~448.00 kbps avg

Cубтитры: отсутствуют
Общее
Полное имя : D:\Фильмы\Den.D.[pirat.ca].avi
Формат : AVI
Формат/Информация : Audio Video Interleave
Размер файла : 1,37 Гбайт
Продолжительность : 1 ч. 24 м.
Общий поток : 2320 Кбит/сек
Программа кодирования : VirtualDubMod 1.5.10.2 (build 2540/release)
Библиотека кодирования : VirtualDubMod build 2540/release
Видео
Идентификатор : 0
Формат : MPEG-4 Visual
Профиль формата : Advanced [email protected]
Параметр BVOP формата : 1
Параметр QPel формата : Нет
Параметр GMC формата : Без точки перехода
Параметр матрицы формата : Default (MPEG)
Идентификатор кодека : XVID
Идентификатор кодека/Подсказка : XviD
Продолжительность : 1 ч. 24 м.
Битрейт : 1863 Кбит/сек
Ширина : 704 пикселя
Высота : 304 пикселя
Соотношение сторон : 2,35:1
Частота кадров : 23,976 кадра/сек
Цветовое пространство : YUV
Субдискретизация насыщенности : 4:2:0
Битовая глубина : 8 бит
Тип развёртки : Прогрессивная
Метод сжатия : С потерями
Бит/(Пиксели*Кадры) : 0.363
Размер потока : 1,10 Гбайт (80%)
Библиотека кодирования : XviD 1.2.1 (UTC 2008-12-04)
Аудио
Идентификатор : 1
Формат : AC-3
Формат/Информация : Audio Coding 3
Расширение режима : CM (complete main)
Параметр Endianness формата : Big
Идентификатор кодека : 2000
Продолжительность : 1 ч. 24 м.
Вид битрейта : Постоянный
Битрейт : 448 Кбит/сек
Каналы : 6 каналов
Расположение каналов : Front: L C R, Side: L R, LFE
Частота : 48,0 КГц
Битовая глубина : 16 бит
Метод сжатия : С потерями
Размер потока : 271 Мбайт (19%)
Выравнивание : Разделение по промежуткам
Продолжительность промежутка : 42 мс. (1,00 видеокадр)
Время предзагрузки промежутка : 500 мс.
Download / Скачать

Хотите скачать бесплатно? Зарегистрируйтесь на сайте (ссылка на регистрацию). Pirat.ca - самый быстрый торрент трекер в рунете!

Как скачивать  ·   Что такое торрент  ·   Рейтинг и ограничения

Пост 02-Фев-2013 01:27 (спустя 11 минут)

Топик был перенесен из форума Наше кино (Трюм) в форум Российские фильмы

erchine
 

vovan200976

Флибустьер

Пост 03-Фев-2013 23:18 (спустя 1 день 22 часа)

[Q] 

Полнейшая хрень а не фильм !!!
[Профиль]  [ЛС] 

ElektroKoT

Шкипер

21

Пост 11-Фев-2013 16:58 (спустя 7 дней)

[Q] 

Оригинал Коммандоc / Commando (Марк Л. Лестер / Mark L. Lester) [1985 г., Боевик, HDRip] MVO гораздо лучше.
[Профиль]  [ЛС] 

Bile ®

4188

Пост 13-Фев-2013 00:26 (спустя 1 день 7 часов)

[Q] 

Ты еще сравни современные ремейки Советских фильмов с их оригиналами...
[Профиль]  [ЛС] 

Sergi4

Гроза морей

Пост 18-Фев-2013 13:29 (спустя 5 дней)

[Q] 

[Профиль]  [ЛС] 

hohol541

Корсар

Пост 08-Мар-2013 15:25 (спустя 18 дней)

[Q] 

Слов нет одни эмоции.Как можно снять такую шнягу?А Шварц знает,что у него такой крутой братан?
[Профиль]  [ЛС] 

Nemetz

Корсар

Пост 11-Апр-2013 07:16 (спустя 1 месяц 2 дня)

[Q] 

В описании дикий трэш bj
[Профиль]  [ЛС] 

Алексей Хромов

Штурман

Пост 03-Окт-2014 02:31 (спустя 1 год 5 месяцев)

[Q] 

Русские фильмы гораздо лучше американского г-вна.
[Профиль]  [ЛС] 

jofrei53

Корсар

Пост 01-Апр-2016 00:24 (спустя 1 год 5 месяцев)

[Q] 

Спасибо! Посмотрим.... Автору респект!!!
[Профиль]  [ЛС] 
Показать сообщения:    
Ответить на тему

Текущее время: Сегодня 10:45

Часовой пояс: GMT + 4



Вы не можете начинать темы
Вы не можете отвечать на сообщения
Вы не можете редактировать свои сообщения
Вы не можете удалять свои сообщения
Вы не можете голосовать в опросах
Вы не можете прикреплять файлы к сообщениям
Вы не можете скачивать файлы

▼ Вниз