ML
     
  Уважаемый Гость!
Вы можете поддержать проект и зарегистрироваться у наших партнеров - онлайн-стратегия MyLands. При регистрации в игре Вы получите код, который сможете активировать после регистрации на pirat.ca и получить 1000 дублонов.

Ваш код:
dbd0d701284cde74a1f34d06ce20b7bc75a73e75
 
     

Настоящая любовь (Сергей Попов) [2012 г., Комедия, DVDRip] [Лицензия]

Ответить на тему
 
Автор
Сообщение

Пост 04-Фев-2013 21:11

[Q] 

AGKRus36

-Настоящая любовь-- Производство: Россия / Всемирные Русские Студии
Режиссер: Сергей Попов
Жанр: Комедия
Год выпуска: 2012 г.
Продолжительность: 01:35:27-Российская премьера: 1 декабря 2012
Дата выхода DVD: 24 января 2013, «Русское счастье»-В ролях: Артур Ваха, Виталий Хаев, Илья Носков, Анна Уколова, Алексей Гришин, Тимофей Трибунцев, Анна Ардова, Дарья Чаруша, Ольга Тумайкина, Кристина Асмус-Описание: Состоятельный адвокат Андрей и начинающая журналистка Лена — каждый по-своему несчастлив в личной жизни. Разведенный Андрей инкогнито ищет настоящую любовь, переодеваясь в нищего, потому что убежден: деньги портят чувства. А Лена тем временем полностью разочаровалась в мужчинах. Теперь ее цель — получить хорошую работу в газете, и в поисках сенсации она решает вывести на чистую воду брачных аферистов. Но, как говорится, любовь нечаянно нагрянет…-Сэмпл КиноПоиск
Качество видео: DVDRip
Контейнер: AVI
Видео кодек: XviD
Аудио кодек: AC3
Видео: 720x400 (1.80:1), 25 fps, XviD build 50 ~1727 kbps avg, 0.24 bit/pixel
Аудио: 48 kHz, AC3 Dolby Digital, 3/2 (L,C,R,l,r) + LFE ch, ~448 kbps [Лицензия]
Cубтитры: отсутствуют
F:\Настоящая любовь\Nastojashhaja.ljubov.2012.O.DVDRip.avi
General
Complete name : F:\Настоящая любовь\Nastojashhaja.ljubov.2012.O.DVDRip.avi
Format : AVI
Format/Info : Audio Video Interleave
File size : 1.46 GiB
Duration : 1h 35mn
Overall bit rate : 2 185 Kbps
Genre : Comedy / Adventure / Romance
Writing application : VirtualDubMod 1.5.10.2 (build 2540/release)
Original source form/Name : Movie
Video #0
ID : 0
Format : MPEG-4 Visual
Format profile : Advanced [email protected]
Format settings, BVOP : 2
Format settings, QPel : No
Format settings, GMC : No warppoints
Format settings, Matrix : Custom
Codec ID : XVID
Codec ID/Hint : XviD
Duration : 1h 35mn
Bit rate : 1 728 Kbps
Width : 720 pixels
Height : 400 pixels
Display aspect ratio : 16:9
Frame rate : 25.000 fps
Color space : YUV
Chroma subsampling : 4:2:0
Bit depth : 8 bits
Scan type : Progressive
Compression mode : Lossy
Bits/(Pixel*Frame) : 0.240
Stream size : 1.15 GiB (79%)
Writing library : XviD 1.2.1 (UTC 2008-12-04)
Audio #1
ID : 1
Format : AC-3
Format/Info : Audio Coding 3
Mode extension : CM (complete main)
Format settings, Endianness : Big
Codec ID : 2000
Duration : 1h 35mn
Bit rate mode : Constant
Bit rate : 448 Kbps
Channel(s) : 6 channels
Channel positions : Front: L C R, Side: L R, LFE
Sampling rate : 48.0 KHz
Bit depth : 16 bits
Compression mode : Lossy
Stream size : 306 MiB (21%)
Alignment : Split accross interleaves
Interleave, duration : 40 ms (1.00 video frame)
Interleave, preload duration : 500 ms
Download / Скачать

Хотите скачать бесплатно? Зарегистрируйтесь на сайте (ссылка на регистрацию). Pirat.ca - самый быстрый торрент трекер в рунете!

Как скачивать  ·   Что такое торрент  ·   Рейтинг и ограничения

Пост 04-Фев-2013 21:42 (спустя 30 минут)

Топик был перенесен из форума Наше кино (Трюм) в форум Новинки (HD|DVD|BD|TV|SAT|PDTV| - Rips)

ara1205
 

DHARMEEDONT

Флибустьер

Пост 04-Фев-2013 23:06 (спустя 1 час 55 минут)

[Q] 

[Профиль]  [ЛС] 

recon811

Шкипер

Пост 05-Фев-2013 19:37 (спустя 20 часов)

[Q] 

спасибо - посмотрим
[Профиль]  [ЛС] 
Показать сообщения:    
Ответить на тему

Текущее время: Сегодня 18:34

Часовой пояс: GMT + 4



Вы не можете начинать темы
Вы не можете отвечать на сообщения
Вы не можете редактировать свои сообщения
Вы не можете удалять свои сообщения
Вы не можете голосовать в опросах
Вы не можете прикреплять файлы к сообщениям
Вы не можете скачивать файлы

▼ Вниз