ML
     
  Уважаемый Гость!
Вы можете поддержать проект и зарегистрироваться у наших партнеров - онлайн-стратегия MyLands. При регистрации в игре Вы получите код, который сможете активировать после регистрации на pirat.ca и получить 1000 дублонов.

Ваш код:
ef8b3e8cd07bec918273586d22e5aaf18e0ae925
 
     

Билет на Vegas (Гор Киракосян) [2013 г., комедия, приключения, DVDRip] [Лицензия]

Ответить на тему
 
Автор
Сообщение

Пост 06-Фев-2013 20:50

[Q] 

AGKRus36

-Билет на Vegas-«Кто же сорвет джек-пот?»- Производство: Россия, США / MG Media
Режиссер: Гор Киракосян
Жанр: комедия, приключения
Год выпуска: 2013 г.
Продолжительность: 01:26:03
Российская премьера: 24 января 2013, «Парадиз»
Дата выхода DVD: 19 февраля 2013, «Парадиз Медиа»
Дата выхода Blu-Ray: 19 февраля 2013, «Парадиз Медиа»-В ролях: Михаил Галустян, Ингрид Олеринская, Иван Стебунов, Владимир Яглыч, Наталья Ноздрина, Дэнни Трехо, Олег Тактаров, Виталий Хаев, Ким Уитли, Гильермо Диас-Описание: На молодую парочку, Макса и Лизу, сваливается удача: они становятся победителями лотереи с выигрышем в пять миллионов долларов! Но получить деньги можно только на торжественной церемонии в столице порока, азартных игр и безудержного веселья, Лас Вегасе…-Сэмпл КиноПоиск
Качество видео: DVDRip
Контейнер: AVI
Видео кодек: XviD
Аудио кодек: AC3
Видео: 640x272 (2.35:1), 25 fps, XviD build 50 ~1005 kbps avg, 0.23 bit/pixel
Аудио: 48 kHz, MP3 2 ch, ~128 kbps [Лицензия]
Cубтитры: отсутствуют
D:\Фильмы\Билет на Vegas\Bilet.na.vegas.2013.O.DVDRip.700MB.avi
General
Complete name : D:\Фильмы\Билет на Vegas\Bilet.na.vegas.2013.O.DVDRip.700MB.avi
Format : AVI
Format/Info : Audio Video Interleave
File size : 703 MiB
Duration : 1h 26mn
Overall bit rate : 1 143 Kbps
Writing application : VirtualDubMod 1.5.10.2 (build 2542/release)
Writing library : VirtualDubMod build 2542/release
Video #0
ID : 0
Format : MPEG-4 Visual
Format profile : Advanced [email protected]
Format settings, BVOP : 1
Format settings, QPel : No
Format settings, GMC : No warppoints
Format settings, Matrix : Default (MPEG)
Muxing mode : Packed bitstream
Codec ID : XVID
Codec ID/Hint : XviD
Duration : 1h 26mn
Bit rate : 1 005 Kbps
Width : 640 pixels
Height : 272 pixels
Display aspect ratio : 2.35:1
Frame rate : 25.000 fps
Color space : YUV
Chroma subsampling : 4:2:0
Bit depth : 8 bits
Scan type : Progressive
Compression mode : Lossy
Bits/(Pixel*Frame) : 0.231
Stream size : 619 MiB (88%)
Writing library : XviD 1.2.1 (UTC 2008-12-04)
Audio #1
ID : 1
Format : MPEG Audio
Format version : Version 1
Format profile : Layer 3
Codec ID : 55
Codec ID/Hint : MP3
Duration : 1h 26mn
Bit rate mode : Constant
Bit rate : 128 Kbps
Channel(s) : 2 channels
Sampling rate : 48.0 KHz
Compression mode : Lossy
Stream size : 78.8 MiB (11%)
Alignment : Aligned on interleaves
Interleave, duration : 40 ms (1.00 video frame)
Interleave, preload duration : 504 ms
Writing library : LAME3.99r
Encoding settings : -m s -V 4 -q 2 -lowpass 17 -b 128
]
Download / Скачать

Хотите скачать бесплатно? Зарегистрируйтесь на сайте (ссылка на регистрацию). Pirat.ca - самый быстрый торрент трекер в рунете!

Как скачивать  ·   Что такое торрент  ·   Рейтинг и ограничения



Последний раз редактировалось: AGKRus36 (2013-02-06 21:58), всего редактировалось 1 раз

maglot129

Корсар

Пост 06-Фев-2013 20:58 (спустя 7 минут)

[Q] 

[Профиль]  [ЛС] 

Alex-dix

Флибустьер

Пост 06-Фев-2013 21:46 (спустя 48 минут)

[Q] 

[Профиль]  [ЛС] 

Пост 06-Фев-2013 22:03 (спустя 17 минут)

Топик был перенесен из форума Наше кино (Трюм) в форум Новинки (HD|DVD|BD|TV|SAT|PDTV| - Rips)

ara1205
 

ivan836

Морской Волк

Пост 06-Фев-2013 22:07 (спустя 21 минута)

[Q] 

[Профиль]  [ЛС] 

Larsen

Лоцман

Пост 06-Фев-2013 22:59 (спустя 52 минуты)

[Q] 

Качество видео: DVDRip
Дата выхода DVD: 19 февраля 2013, «Парадиз Медиа»
Один я что-то не понимаю?
[Профиль]  [ЛС] 

demon-292

Корсар

Пост 07-Фев-2013 06:08 (спустя 7 часов)

[Q] 

Но, по скринам норм вроде!
[Профиль]  [ЛС] 

bull271174

Флибустьер

Пост 07-Фев-2013 13:31 (спустя 7 часов)

[Q] 

[Профиль]  [ЛС] 

rockeytonys

Штурман

Пост 07-Фев-2013 14:22 (спустя 51 минута)

[Q] 

Глянем трешачек с галустяном
[Профиль]  [ЛС] 

leon899xxx

Морской Волк

2634

Пост 07-Фев-2013 16:14 (спустя 1 час 52 минуты)

[Q] 

и таких аллигаторов
ещё в фильмах снимают ca fg
[Профиль]  [ЛС] 

leon899xxx

Морской Волк

2634

Пост 07-Фев-2013 17:32 (спустя 1 час 17 минут)

[Q] 

фильм полное г..... , посмотрел только из за симпотной главной героини.В общем кто не видел то может не качать - ничего не потеряете
[Профиль]  [ЛС] 

DHARMEEDONT

Флибустьер

Пост 08-Фев-2013 06:49 (спустя 13 часов)

[Q] 

[Профиль]  [ЛС] 

got70

Легенда

752

Пост 08-Фев-2013 07:16 (спустя 27 минут)

[Q] 


_________________
Добро непременно победит зло!Непременно...Затем поставит на колени,и зверски УБЬЁТ!
[Профиль]  [ЛС] 

tu6enka

Флибустьер

Пост 08-Фев-2013 13:13 (спустя 5 часов)

[Q] 

[Профиль]  [ЛС] 

maksim51185

Шкипер

Пост 09-Фев-2013 13:46 (спустя 1 день)

[Q] 

фильм ничего особенного из себя не представляет, посмотрел и забыл...
[Профиль]  [ЛС] 
Показать сообщения:    
Ответить на тему

Текущее время: Сегодня 18:38

Часовой пояс: GMT + 4



Вы не можете начинать темы
Вы не можете отвечать на сообщения
Вы не можете редактировать свои сообщения
Вы не можете удалять свои сообщения
Вы не можете голосовать в опросах
Вы не можете прикреплять файлы к сообщениям
Вы не можете скачивать файлы

▼ Вниз