ML
     
  Уважаемый Гость!
Вы можете поддержать проект и зарегистрироваться у наших партнеров - онлайн-стратегия MyLands. При регистрации в игре Вы получите код, который сможете активировать после регистрации на pirat.ca и получить 1000 дублонов.

Ваш код:
59354507ba913a0948d1a8f2e30f2e04c4cd7b9b
 
     

Билет на Vegas (Гор Киракосян) [2012 г., Комедия, приключения, DVDRip-AVC] [Лицензия]

Страницы :  1, 2  След.

Ответить на тему
 
Автор
Сообщение

Пост 07-Фев-2013 21:09

[Q] 

AGKRus36

-Билет на Vegas-- Производство: Россия, США
Режиссер: Гор Киракосян
Жанр: Комедия, приключения
Год выпуска: 2012 г.
Продолжительность: 01:26:03
Российская премьера: 24 января 2013, «Парадиз»
Дата выхода DVD: 19 февраля 2013, «Парадиз Медиа»
Дата выхода Blu-Ray: 19 февраля 2013, «Парадиз Медиа»-В ролях: Михаил Галустян, Ингрид Олеринская, Иван Стебунов, Владимир Яглыч, Наталья Ноздрина, Дэнни Трехо, Олег Тактаров, Виталий Хаев, Ким Уитли, Гильермо Диас, Годфри, Ирина Бякова, Ксения Белоусова-Описание: На молодую парочку, Макса и Лизу, сваливается удача: они становятся победителями лотереи с выигрышем в пять миллионов долларов! Но получить деньги можно только на торжественной церемонии в столице порока, азартных игр и безудержного веселья, Лас Вегасе…-Сэмпл КиноПоиск
Качество видео: DVDRip-AVC
Контейнер: MKV
Видео кодек: H.264
Аудио кодек: AC3
Видео: H.264, 1024х424 (2,40:1), 25.000 fps, 2028 Кbps, 0.187 bit/pixel
Аудио: 48 kHz, AC3 Dolby Digital, 3/2 (L,C,R,l,r) + LFE ch, ~384.00 kbps avg [Лицензия]
Cубтитры: отсутствуют
D:\Фильмы\Билет на Vegas\Bilet.na.Vegas.2012.x264.DVDRip.(AVC).mkv
General
Unique ID : 175977000902552955343717340242329506607 (0x8463F003AE5A752582907117B500932F)
Complete name : D:\Фильмы\Билет на Vegas\Bilet.na.Vegas.2012.x264.DVDRip.(AVC).mkv
Format : Matroska
Format version : Version 1
File size : 1.45 GiB
Duration : 1h 26mn
Overall bit rate : 2 415 Kbps
Encoded date : UTC 2013-02-07 13:18:37
Writing application : mkvmerge v2.1.0 ('Another Place To Fall') built on Aug 19 2007 13:40:07
Writing library : libebml v0.7.7 + libmatroska v0.8.1
Video #1
ID : 1
Format : AVC
Format/Info : Advanced Video Codec
Format profile : [email protected]
Format settings, CABAC : Yes
Format settings, ReFrames : 8 frames
Codec ID : V_MPEG4/ISO/AVC
Duration : 1h 26mn
Bit rate : 2 028 Kbps
Width : 1 024 pixels
Height : 424 pixels
Display aspect ratio : 2.40:1
Frame rate mode : Constant
Frame rate : 25.000 fps
Color space : YUV
Chroma subsampling : 4:2:0
Bit depth : 8 bits
Scan type : Progressive
Bits/(Pixel*Frame) : 0.187
Stream size : 1.19 GiB (82%)
Writing library : x264 core 115 r1937 aa21558
Encoding settings : cabac=1 / ref=8 / deblock=1:-2:-2 / analyse=0x3:0x113 / me=umh / subme=8 / psy=1 / psy_rd=1.00:0.10 / mixed_ref=0 / me_range=32 / chroma_me=1 / trellis=2 / 8x8dct=1 / cqm=0 / deadzone=21,11 / fast_pskip=1 / chroma_qp_offset=-3 / threads=6 / sliced_threads=0 / nr=0 / decimate=1 / interlaced=0 / bluray_compat=0 / constrained_intra=0 / bframes=8 / b_pyramid=2 / b_adapt=2 / b_bias=0 / direct=3 / weightb=1 / open_gop=0 / weightp=0 / keyint=250 / keyint_min=25 / scenecut=40 / intra_refresh=0 / rc_lookahead=30 / rc=2pass / mbtree=1 / bitrate=2028 / ratetol=1.0 / qcomp=0.60 / qpmin=15 / qpmax=47 / qpstep=3 / cplxblur=20.0 / qblur=0.5 / ip_ratio=1.40 / aq=1:1.10
Language : English
Default : Yes
Forced : No
Audio #2
ID : 2
Format : AC-3
Format/Info : Audio Coding 3
Mode extension : CM (complete main)
Format settings, Endianness : Big
Codec ID : A_AC3
Duration : 1h 26mn
Bit rate mode : Constant
Bit rate : 384 Kbps
Channel(s) : 6 channels
Channel positions : Front: L C R, Side: L R, LFE
Sampling rate : 48.0 KHz
Bit depth : 16 bits
Compression mode : Lossy
Stream size : 236 MiB (16%)
Title : Русский
Language : Russian
Default : Yes
Forced : No
Download / Скачать

Хотите скачать бесплатно? Зарегистрируйтесь на сайте (ссылка на регистрацию). Pirat.ca - самый быстрый торрент трекер в рунете!

Как скачивать  ·   Что такое торрент  ·   Рейтинг и ограничения

Zha-pol

Легенда

Пост 07-Фев-2013 21:19 (спустя 9 минут)

[Q] 


_________________
[Профиль]  [ЛС] 

Zha-pol

Легенда

Пост 07-Фев-2013 21:26 (спустя 7 минут)

[Q] 


_________________
[Профиль]  [ЛС] 

kinstintin

Гроза морей

Пост 07-Фев-2013 21:58 (спустя 31 минута)

[Q] 

[Профиль]  [ЛС] 

Klex

Морской Волк

Пост 07-Фев-2013 22:07 (спустя 8 минут)

[Q] 

[Профиль]  [ЛС] 

Пост 07-Фев-2013 22:33 (спустя 26 минут)

Топик был перенесен из форума Наше кино (Трюм) в форум Новинки (HD|DVD|BD|TV|SAT|PDTV| - Rips)

genkasper
 

torm123

Штурман

Пост 07-Фев-2013 23:24 (спустя 1 час 17 минут)

[Q] 

Хорошая комедия. не знаю чего народ плюётся
[Профиль]  [ЛС] 

DHARMEEDONT

Флибустьер

Пост 08-Фев-2013 00:00 (спустя 36 минут)

[Q] 

[Профиль]  [ЛС] 

strikeF

Корсар

Пост 08-Фев-2013 00:51 (спустя 50 минут)

[Q] 

[Профиль]  [ЛС] 

BOBROFF

Морской Волк

Пост 08-Фев-2013 02:42 (спустя 1 час 50 минут)

[Q] 

[Профиль]  [ЛС] 

bigden1974

Шкипер

Пост 09-Фев-2013 07:50 (спустя 1 день 5 часов)

[Q] 

Заценим
[Профиль]  [ЛС] 

Aleks44

Гроза морей

Пост 09-Фев-2013 10:34 (спустя 2 часа 44 минуты)

[Q] 

От просмотра фильма можно только улыбнуться не более, средний фильм
[Профиль]  [ЛС] 

rekrut26

Морской Волк

67

Пост 09-Фев-2013 11:22 (спустя 47 минут)

[Q] 


_________________
[Профиль]  [ЛС] 

serafim7

Корсар

99

Пост 09-Фев-2013 11:31 (спустя 9 минут)

[Q] 

отзывы не айс
[Профиль]  [ЛС] 

maksim51185

Шкипер

Пост 09-Фев-2013 13:44 (спустя 2 часа 12 минут)

[Q] 

фильм ничего особенного из себя не представляет, посмотрел и забыл....
[Профиль]  [ЛС] 

Demon198455

Шкипер

Пост 09-Фев-2013 14:07 (спустя 23 минуты)

[Q] 

[Профиль]  [ЛС] 

Lord_Bayron

Шкипер

Пост 09-Фев-2013 14:40 (спустя 32 минуты)

[Q] 

спасибо
[Профиль]  [ЛС] 

Серегазмей

Корсар

186

Пост 09-Фев-2013 15:03 (спустя 22 минуты)

[Q] 

Спасибо!

_________________
[Профиль]  [ЛС] 

Karapult

Лоцман

Пост 09-Фев-2013 15:14 (спустя 10 минут)

[Q] 

1.5 часа потерянного времени , единственный нормальный актер в этом фильме - борец
сценарий никто даже не заморачивался писать снимали придумывая на месте шутки (хотя о шутках я зря их тут нет)
[Профиль]  [ЛС] 

DobermaN

Шкипер

Пост 09-Фев-2013 17:57 (спустя 2 часа 43 минуты)

[Q] 

320482От просмотра фильма можно только улыбнуться не более, средний фильм
От просмотра фильма можно ОБРЫГАТЬСЯ!!! Это просто жуткое ДЕРьМИЩЕ!!! Россияне, ну не умеете вы снимать нормальное кино. Тем более комедии! Уровень тупости и жопошно-пердежного юмора зашкаливает. Это просто убогая, никчемная, ужасная пародия на отличный американчкий фильм "Однажды в Вегасе" (кто не видел, посмотрите для сравнения). У меня весь фильм выражение лица было, лучше всего передающимся неприличным английским словосочетанием «WTF?!». Вот почему нет сейчас таких людей как Гайдай?! Зачем уподобляться этим тупым жирным америкосам. Ну вот не смешно когда весь фильм пердят, рыгают, трахаются. Мне же не тринадцать лет.
Короче фильм снят дегенератами для дегенератов. Нормальному адекватному человеку подобное ГОВНО понравиться не может!!!
[Профиль]  [ЛС] 

VEK51

Шкипер

86

Пост 10-Фев-2013 05:47 (спустя 11 часов)

[Q] 

Ребят из Comedy кино снять не могут по определению.
[Профиль]  [ЛС] 

dp

Корсар

Пост 10-Фев-2013 06:19 (спустя 31 минута)

[Q] 

фильм одноразывый,не сказать что говно но явно слизан с американского

_________________
Мог стать отличным пианистом, а стал поскудным программистом
[Профиль]  [ЛС] 

AlexM

Корсар

Пост 10-Фев-2013 15:58 (спустя 9 часов)

[Q] 

Спасибо. Посмотрел и забыл.
[Профиль]  [ЛС] 

s_s

Гроза морей

Пост 10-Фев-2013 16:22 (спустя 24 минуты)

[Q] 

так себе. не для всех я бы сказал..

_________________
в себе самом добра со злом
[Профиль]  [ЛС] 

westup

Штурман

Пост 10-Фев-2013 16:36 (спустя 13 минут)

[Q] 


_________________
[Профиль]  [ЛС] 

Dj NIKI

Флибустьер

3041

Пост 10-Фев-2013 17:26 (спустя 50 минут)

[Q] 

Фильм ВАТА! Я привык к дерьму которое снимают наши соотечественники, но такого...........я просто не мог представить! Это же просто Х**та!!! Отговаривать кого от просмотра не собираюсь... Если бы я знал что это такое, то я бы точно не стал смотреть...

_________________
[Профиль]  [ЛС] 

RYT

Морской Волк

163

Пост 10-Фев-2013 20:08 (спустя 2 часа 42 минуты)

[Q] 

Не понравился
[Профиль]  [ЛС] 

egorka st

Корсар

Пост 11-Фев-2013 11:51 (спустя 15 часов)

[Q] 

Тьфу..Тьфу..Тьфу... Дермище а не фильм, дрянь! Как они потом людям в глаза смотрят, такую хрень снять, это же как стыдно потом. Миша Галустян - Бородач его амплуа, с каждой ролью всё больше и больше расстраивает. Мой совет - не тратьте времени зря...
Автору раздачи Спасибо.

_________________
[Профиль]  [ЛС] 

Alex-dix

Флибустьер

Пост 11-Фев-2013 20:07 (спустя 8 часов)

[Q] 

[Профиль]  [ЛС] 

jaytro

Морской Волк

Пост 11-Фев-2013 20:54 (спустя 47 минут)

[Q] 

посмотрим.....
[Профиль]  [ЛС] 
Показать сообщения:    
Ответить на тему

Текущее время: Сегодня 16:07

Часовой пояс: GMT + 4



Вы не можете начинать темы
Вы не можете отвечать на сообщения
Вы не можете редактировать свои сообщения
Вы не можете удалять свои сообщения
Вы не можете голосовать в опросах
Вы не можете прикреплять файлы к сообщениям
Вы не можете скачивать файлы

▼ Вниз