ML
     
  Уважаемый Гость!
Вы можете поддержать проект и зарегистрироваться у наших партнеров - онлайн-стратегия MyLands. При регистрации в игре Вы получите код, который сможете активировать после регистрации на pirat.ca и получить 1000 дублонов.

Ваш код:
dbd0d701284cde74a1f34d06ce20b7bc75a73e75
 
     

Изображая жертву (Кирилл Серебренников) [2006 г., Комедия, DVDRip]

Ответить на тему
 
Автор
Сообщение

Пост 09-Фев-2013 23:28

[Q] 

Karam

Шкипер

-Изображая жертву-- Производство: Россия
Режиссер: Кирилл Серебренников
Жанр: Комедия
Год выпуска: 2006 г.
Продолжительность: 1:40:03
Российская премьера: 8 июня 2006
Дата выхода DVD: 7 июля 2009
В ролях: Юрий Чурсин, Виталий Хаев, Марат Башаров, Ольга Демидова, Марина Голуб, Анна Михалкова, Федор Добронравов, Андрей Фомин, Елена Морозова, Наталья Мокрицкая.-Описание: Молодой человек Валя, закончив университет, ради заработка устраивается в милицию, где изображает жертв преступлений во время следственных экспериментов. Следственная группа в составе харизматичного капитана, вооруженной видеокамерой прапорщицы Люды и туповатого сержанта ежедневно вывозит подсудимых на места преступлений, где положено восстановить картину трагедии.
Понятное дело, все эти «расследования» проводятся для галочки (исход дела предрешен, преступник будет осужден), что создает фон легкого абсурда. Дополнительное сумасшествие в происходящее приносят сами преступники: пэтэушник Карась показывает, как он хотел зарезать и расчленить свою возлюбленную в уличном биотуалете, интеллигент-неврастеник выбросил из окна собственную жену, неудачный Ромео кавказской национальности утопил любимую девушку в бассейне, еще один представитель малого бизнеса ни с того ни с сего застрелил одноклассника в японском ресторане — «пульнул» из пистолета, как он выразился.-КиноПоиск
Качество видео: DVDRip
Контейнер: AVI
Видео кодек: XviD
Аудио кодек: AC3
Видео: 704x384 (1.83:1), 25 fps, XviD build 64 ~1693 kbps avg, 0.25 bit/pixel
Аудио: 48 kHz, AC3 Dolby Digital, 3/2 (L,C,R,l,r) + LFE ch, ~384 kbps
Cубтитры: отсутствуют
Общее
Полное имя : D:\pirat.ca\Изображая жертву (2006) DVDRip.avi
Формат : AVI
Формат/Информация : Audio Video Interleave
Размер файла : 1,46 Гбайт
Продолжительность : 1 ч. 40 м.
Общий поток : 2088 Кбит/сек
Программа кодирования : VirtualDubMod 1.5.10.3 | www.virtualdub-fr.org || (build 2550/release)
Библиотека кодирования : VirtualDubMod build 2550/release
Видео
Идентификатор : 0
Формат : MPEG-4 Visual
Профиль формата : Advanced [email protected]
Параметр BVOP формата : 1
Параметр QPel формата : Нет
Параметр GMC формата : Без точки перехода
Параметр матрицы формата : Выборочная
Идентификатор кодека : XVID
Идентификатор кодека/Подсказка : XviD
Продолжительность : 1 ч. 40 м.
Битрейт : 1694 Кбит/сек
Ширина : 704 пикселя
Высота : 384 пикселя
Соотношение сторон : 1,85:1
Частота кадров : 25,000 кадров/сек
Цветовое пространство : YUV
Субдискретизация насыщенности : 4:2:0
Битовая глубина : 8 бит
Тип развёртки : Прогрессивная
Метод сжатия : С потерями
Бит/(Пиксели*Кадры) : 0.251
Размер потока : 1,18 Гбайт (81%)
Библиотека кодирования : XviD 64
Аудио
Идентификатор : 1
Формат : AC-3
Формат/Информация : Audio Coding 3
Расширение режима : CM (complete main)
Параметр Endianness формата : Big
Идентификатор кодека : 2000
Продолжительность : 1 ч. 40 м.
Вид битрейта : Постоянный
Битрейт : 384 Кбит/сек
Каналы : 6 каналов
Расположение каналов : Front: L C R, Side: L R, LFE
Частота : 48,0 КГц
Битовая глубина : 16 бит
Метод сжатия : С потерями
Размер потока : 275 Мбайт (18%)
Выравнивание : Разделение по промежуткам
Продолжительность промежутка : 40 мс. (1,00 видеокадр)
Время предзагрузки промежутка : 500 мс.
Download / Скачать

Хотите скачать бесплатно? Зарегистрируйтесь на сайте (ссылка на регистрацию). Pirat.ca - самый быстрый торрент трекер в рунете!

Как скачивать  ·   Что такое торрент  ·   Рейтинг и ограничения



Последний раз редактировалось: Karam (2013-02-10 12:15), всего редактировалось 2 раз(а)

Пост 10-Фев-2013 13:21 (спустя 13 часов)

Топик был перенесен из форума Наше кино (Трюм) в форум Российские фильмы

erchine
 

pz4

Корсар

79

Пост 11-Фев-2013 00:00 (спустя 1 день)

[Q] 

треш

_________________
www.pirat.ca
[Профиль]  [ЛС] 

Karam ®

Шкипер

17

Пост 17-Фев-2013 00:40 (спустя 6 дней)

[Q] 

Согласен) Просто просили выложить)
[Профиль]  [ЛС] 

Sergi4

Гроза морей

Пост 18-Фев-2013 13:35 (спустя 1 день 12 часов)

[Q] 

[Профиль]  [ЛС] 

Kuck

Шкипер

Пост 28-Мар-2013 18:21 (спустя 1 месяц 10 дней)

[Q] 

Благодарю
[Профиль]  [ЛС] 

Nemetz

Корсар

Пост 11-Апр-2013 06:23 (спустя 13 дней)

[Q] 

Понравился лишь диалог про сборную России bj
[Профиль]  [ЛС] 
Показать сообщения:    
Ответить на тему

Текущее время: Сегодня 18:30

Часовой пояс: GMT + 4



Вы не можете начинать темы
Вы не можете отвечать на сообщения
Вы не можете редактировать свои сообщения
Вы не можете удалять свои сообщения
Вы не можете голосовать в опросах
Вы не можете прикреплять файлы к сообщениям
Вы не можете скачивать файлы

▼ Вниз