ML
     
  Уважаемый Гость!
Вы можете поддержать проект и зарегистрироваться у наших партнеров - онлайн-стратегия MyLands. При регистрации в игре Вы получите код, который сможете активировать после регистрации на pirat.ca и получить 1000 дублонов.

Ваш код:
bc31d8aef74c92e19ad67e34a8fa63c3b9b812fb
 
     

Ночной продавец (Валерий Рожнов) [2004 г., триллер, комедия, DVDRip]

Ответить на тему
 
Автор
Сообщение

Пост 11-Фев-2013 01:10

[Q] 

Bile

-Ночной продавец-- Производство: Россия,СТВ
Режиссер: Валерий Рожнов
Жанр: триллер, комедия
Год выпуска: 2004 г.
Продолжительность: 01:25:05
В ролях: Павел Баршак, Виктор Сухоруков, Ингеборга Дапкунайте, Андрей Краско, Вячеслав Разбегаев, Андрей Мерзликин, Константин Мурзенко, Спартак Мишулин-Описание: В городе орудует Маньяк. Его время — ночь. Его любимая погода — дождь. Именно после таких ночей в городе находили его жертвы. И именно в такую ночь подрабатывающий Студент заступает на смену в круглосуточный магазин. В эту же ночь его Босс отправляется играть в казино, а Жена босса решает поразвлечься. В эту же ночь Сыщик ожидает новую жертву. Потому что на ночном небе сверкают грозовые молнии и… Маньяк уже вышел на охоту!-
Качество видео: DVDRip
Контейнер: AVI
Видео кодек: XviD
Аудио кодек: AC3
Видео: 720x400 (1.80:1), 25 fps, XviD build 50 ~1994 kbps avg, 0.28 bit/pixel
Аудио: 48 kHz, AC3 Dolby Digital, 3/2 (L,C,R,l,r) + LFE ch, ~448 kbps
Cубтитры: отсутствуют
Общее
Полное имя : Nochnoy.Prodavets.2004..avi
Формат : AVI
Формат/Информация : Audio Video Interleave
Размер файла : 1,46 Гбайт
Продолжительность : 1 ч. 25 м.
Общий поток : 2453 Кбит/сек
Программа кодирования : VirtualDubModRus 1.5.10.2 (build 2542/release)
Видео
Идентификатор : 0
Формат : MPEG-4 Visual
Профиль формата : Advanced [email protected]
Параметр BVOP формата : 1
Параметр QPel формата : Нет
Параметр GMC формата : Без точки перехода
Параметр матрицы формата : Default (MPEG)
Идентификатор кодека : XVID
Идентификатор кодека/Подсказка : XviD
Продолжительность : 1 ч. 25 м.
Битрейт : 1995 Кбит/сек
Ширина : 720 пикселей
Высота : 400 пикселей
Соотношение сторон : 16:9
Частота кадров : 25,000 кадров/сек
Цветовое пространство : YUV
Субдискретизация насыщенности : 4:2:0
Битовая глубина : 8 бит
Тип развёртки : Прогрессивная
Метод сжатия : С потерями
Бит/(Пиксели*Кадры) : 0.277
Размер потока : 1,19 Гбайт (81%)
Библиотека кодирования : XviD 1.2.1 (UTC 2008-12-04)
Аудио
Идентификатор : 1
Формат : AC-3
Формат/Информация : Audio Coding 3
Расширение режима : CM (complete main)
Параметр Endianness формата : Big
Идентификатор кодека : 2000
Продолжительность : 1 ч. 25 м.
Вид битрейта : Постоянный
Битрейт : 448 Кбит/сек
Каналы : 6 каналов
Расположение каналов : Front: L C R, Side: L R, LFE
Частота : 48,0 КГц
Битовая глубина : 16 бит
Метод сжатия : С потерями
Размер потока : 273 Мбайт (18%)
Выравнивание : Разделение по промежуткам
Продолжительность промежутка : 40 мс. (1,00 видеокадр)
Download / Скачать

Хотите скачать бесплатно? Зарегистрируйтесь на сайте (ссылка на регистрацию). Pirat.ca - самый быстрый торрент трекер в рунете!

Как скачивать  ·   Что такое торрент  ·   Рейтинг и ограничения

Пост 11-Фев-2013 10:12 (спустя 9 часов)

Топик был перенесен из форума Наше кино (Трюм) в форум Российские фильмы

ara1205
 

andkon

Лоцман

Пост 14-Фев-2013 21:03 (спустя 3 дня)

[Q] 

Отличный фильмец.
Хотя бы 1 раз посмотреть стоит.
[Профиль]  [ЛС] 

Sergi4

Гроза морей

Пост 18-Фев-2013 13:24 (спустя 3 дня)

[Q] 

[Профиль]  [ЛС] 

hohol541

Корсар

Пост 08-Мар-2013 15:33 (спустя 18 дней)

[Q] 

Поучительно.Все беды от баб.
[Профиль]  [ЛС] 

Фтещт

Корсар

61

Пост 06-Июл-2013 14:54 (спустя 3 месяца 28 дней)

[Q] 

[Профиль]  [ЛС] 
Показать сообщения:    
Ответить на тему

Текущее время: Сегодня 12:03

Часовой пояс: GMT + 4



Вы не можете начинать темы
Вы не можете отвечать на сообщения
Вы не можете редактировать свои сообщения
Вы не можете удалять свои сообщения
Вы не можете голосовать в опросах
Вы не можете прикреплять файлы к сообщениям
Вы не можете скачивать файлы

▼ Вниз