ML
     
  Уважаемый Гость!
Вы можете поддержать проект и зарегистрироваться у наших партнеров - онлайн-стратегия MyLands. При регистрации в игре Вы получите код, который сможете активировать после регистрации на pirat.ca и получить 1000 дублонов.

Ваш код:
ec3b26eefbcdc72e08e9fd33c6846bb2ca10f8b1
 
     

Аврора (Оксана Байрак) [2006 г., драма, DVDRip-AVC]

Ответить на тему
 
Автор
Сообщение

Пост 11-Фев-2013 14:08

[Q] 

Bile

-Аврора-- Производство: Украина, "Студия Байрак"
Режиссер: Оксана Байрак
Жанр: драма
Год выпуска: 2006 г.
Продолжительность: 01:47:24
В ролях: Дмитрий Харатьян, Эрик Робертс, Анастасия Зюркалова, Анастасия Меськова, Виктор Степанов, Римма Зюбина, Олег Масленников, Анастасия Сердюк, Владимир Горянский, Екатерина Качан-Описание: Аврора — воспитанница детдома на окраине Припяти. Она обожает танцевать и мечтает стать балериной. Во время катастрофы на Чернобыльской атомной электростанции девочка получает огромную дозу облучения. Единственный шанс на выживание — дорогостоящая операция в США. Аврору отправляют в Америку, где в больнице она встречает своего кумира, звезду советского, а затем американского балета, Ника Астахова, переживающего глубокий творческий кризис. Встреча с умирающим ребенком, которой грезит о балетной сцене, помогает артисту изменить свою жизнь…-
Качество видео: DVDRip-AVC
Контейнер: MKV
Видео кодек: H.264
Аудио кодек: AC3
Видео: 672x288(2,35:1), 25.000 fps, 1366 kbps, 0.28 bit/pixel
Аудио: 48,0 kHz, AC-3, 6ch, 448 kbps
Cубтитры: отсутствуют
бщее
Уникальный идентификатор : 168348648403719580577546155723716462494 (0x7EA6C532C2870C1E037BA147C20E879E)
Полное имя : Aurora.2006..mkv
Формат : Matroska
Версия формата : Version 2
Размер файла : 1,39 Гбайт
Продолжительность : 1 ч. 47 м.
Общий поток : 1851 Кбит/сек
Программа кодирования : Lavf51.12.1
Библиотека кодирования : Lavf51.12.1
Видео
Идентификатор : 1
Формат : AVC
Формат/Информация : Advanced Video Codec
Профиль формата : [email protected]
Параметр CABAC формата : Нет
Параметр ReFrames формата : 1 кадр
Параметр GOP формата : M=1, N=12
Идентификатор кодека : V_MPEG4/ISO/AVC
Продолжительность : 1 ч. 47 м.
Битрейт : 1366 Кбит/сек
Ширина : 672 пикселя
Высота : 288 пикселей
Соотношение сторон : 2,35:1
Режим частоты кадров : Постоянный
Частота кадров : 25,000 кадров/сек
Цветовое пространство : YUV
Субдискретизация насыщенности : 4:2:0
Битовая глубина : 8 бит
Тип развёртки : Прогрессивная
Бит/(Пиксели*Кадры) : 0.282
Размер потока : 1,02 Гбайт (74%)
Default : Да
Forced : Нет
Аудио
Идентификатор : 2
Формат : AC-3
Формат/Информация : Audio Coding 3
Расширение режима : CM (complete main)
Параметр Endianness формата : Big
Идентификатор кодека : A_AC3
Продолжительность : 1 ч. 47 м.
Вид битрейта : Постоянный
Битрейт : 448 Кбит/сек
Каналы : 6 каналов
Расположение каналов : Front: L C R, Side: L R, LFE
Частота : 48,0 КГц
Битовая глубина : 16 бит
Метод сжатия : С потерями
Размер потока : 344 Мбайт (24%)
Default : Да
Forced : Нет
Download / Скачать

Хотите скачать бесплатно? Зарегистрируйтесь на сайте (ссылка на регистрацию). Pirat.ca - самый быстрый торрент трекер в рунете!

Как скачивать  ·   Что такое торрент  ·   Рейтинг и ограничения



Последний раз редактировалось: Bile (2013-02-11 23:15), всего редактировалось 4 раз(а)
Показать сообщения:    
Ответить на тему

Текущее время: Сегодня 03:48

Часовой пояс: GMT + 4



Вы не можете начинать темы
Вы не можете отвечать на сообщения
Вы не можете редактировать свои сообщения
Вы не можете удалять свои сообщения
Вы не можете голосовать в опросах
Вы не можете прикреплять файлы к сообщениям
Вы не можете скачивать файлы

▼ Вниз