ML
     
  Уважаемый Гость!
Вы можете поддержать проект и зарегистрироваться у наших партнеров - онлайн-стратегия MyLands. При регистрации в игре Вы получите код, который сможете активировать после регистрации на pirat.ca и получить 1000 дублонов.

Ваш код:
ef8b3e8cd07bec918273586d22e5aaf18e0ae925
 
     

Джентльмены, удачи! (Александр Баранов, Дмитрий Киселёв) [2012 г., комедия, криминал, HDRip] [Лицензия]

Ответить на тему
 
Автор
Сообщение

Пост 13-Фев-2013 13:01

[Q] 

ara1205

-Джентльмены, удачи!-- Производство: Россия
Год выпуска: 2012 г.
Жанр: комедия, криминал
Продолжительность: 01:39:55-Режиссер: Александр Баранов, Дмитрий Киселёв-В ролях: Сергей Безруков, Гоша Куценко, Антон Богданов, Марина Петренко, Дато Бахтадзе, Кирилл Жандаров, Валентин Смирнитский, Толепберген Байсакалов-Описание: Молодой аниматор детского центра Леша Трешкин — инфантильный и жизнерадостный «хипстер» — оказывается двойником опаснейшего вора и убийцы Смайлика (так его прозвали за привычку улыбаться перед тем, как убить). Смайлик похищает из музея Санкт-Петербурга национальный символ Казахстана — Доспех Золотого Воина. Молодая красивая лейтенант полиции Ирина Славина ловит Трешкина, и «современными» полицейскими методами заставляет его помочь следствию. Выбора нет, иначе Трешкин сядет как настоящий преступник.
Так Трешкин оказывается в Египте, где сидят двое подельников Смайлика — молодой воришка-оптимист Муха и матёрый мрачный Шатун. Начинается безумная череда приключений, — побег под прикрытием песчаной бури, гонки на грузовиках, переодевание в паранджи. Пытаясь выкрутиться из создавшейся ситуации, Трешкин неожиданно понимает, что из безответственного слабака превращается в человека, от которого зависит свобода и жизнь других. Но когда реальный Смайлик выходит на сцену, Трешкину придется решиться на настоящий подвиг, чтобы в этот новый год спасти и себя, и Славину, и своих новых друзей. А главное — найти любовь.- -Качество видео: HDRip
Контейнер: AVI
Видео кодек: XviD
Аудио кодек: MP3
Видео: 688x288, 24,000 fps, 907 Kbps, 0.191 bit/pixel
Аудио: 48 kHz, 2 ch, 128 kbps
Cубтитры: отсутствуют-
Общее
Полное имя : C:\Users\Ромик\Pictures\Посмотреть\Dzhentlmeny.udachi\Dzhentlmeny.udachi.2012.HDRip.745Mb.[pirat.ca].avi
Формат : AVI
Формат/Информация : Audio Video Interleave
Размер файла : 746 Мбайт
Продолжительность : 1 ч. 39 м.
Общий поток : 1044 Кбит/сек
Название фильма : Dzhentlmeny.udachi.2012.HDRip.745Mb.[pirat.ca]
Жанр : Comedy
Программа кодирования : VirtualDubMod 1.5.10.2 (build 2540/release)
Видео
Идентификатор : 0
Формат : MPEG-4 Visual
Профиль формата : Advanced [email protected]
Параметр BVOP формата : 2
Параметр QPel формата : Нет
Параметр GMC формата : Без точки перехода
Параметр матрицы формата : Default (MPEG)
Идентификатор кодека : XVID
Идентификатор кодека/Подсказка : XviD
Продолжительность : 1 ч. 39 м.
Битрейт : 907 Кбит/сек
Ширина : 688 пикселей
Высота : 288 пикселей
Соотношение сторон : 2,40:1
Частота кадров : 24,000 кадра/сек
Цветовое пространство : YUV
Субдискретизация насыщенности : 4:2:0
Битовая глубина : 8 бит
Тип развёртки : Прогрессивная
Метод сжатия : С потерями
Бит/(Пиксели*Кадры) : 0.191
Размер потока : 648 Мбайт (87%)
Библиотека кодирования : XviD 1.2.0.dev47 (UTC 2006-11-01)
Аудио
Идентификатор : 1
Формат : MPEG Audio
Версия формата : Version 1
Профиль формата : Layer 3
Идентификатор кодека : 55
Идентификатор кодека/Подсказка : MP3
Продолжительность : 1 ч. 39 м.
Вид битрейта : Постоянный
Битрейт : 128 Кбит/сек
Каналы : 2 канала
Частота : 48,0 КГц
Метод сжатия : С потерями
Размер потока : 91,5 Мбайт (12%)
Выравнивание : Соединение по промежуткам
Продолжительность промежутка : 42 мс. (1,00 видеокадр)
Время предзагрузки промежутка : 504 мс.
Библиотека кодирования : LAME3.99r
Настройки программы : -m s -V 4 -q 2 -lowpass 17 -b 128
-
-
Download / Скачать

Хотите скачать бесплатно? Зарегистрируйтесь на сайте (ссылка на регистрацию). Pirat.ca - самый быстрый торрент трекер в рунете!

Как скачивать  ·   Что такое торрент  ·   Рейтинг и ограничения

DiFiX_86

Морской Волк

Пост 13-Фев-2013 15:21 (спустя 2 часа 20 минут)

[Q] 

Прикольный фильм, стоит посмотреть. Хуже конечно оригинала, но смотреть определенно стоит.
[Профиль]  [ЛС] 

yulya230784

Морской Волк

927

Пост 13-Фев-2013 21:44 (спустя 6 часов)

[Q] 

[Профиль]  [ЛС] 

byzzbyzz

Корсар

Пост 15-Фев-2013 13:12 (спустя 1 день 15 часов)

[Q] 

322737Прикольный фильм, стоит посмотреть. Хуже конечно оригинала, но смотреть определенно стоит.
Не спасибо,как нибудь без него.....
[Профиль]  [ЛС] 

Ignacio1

Штурман

Пост 16-Фев-2013 10:27 (спустя 21 час)

[Q] 

Фильм кавно!
Стыдно за такой кинематограф!
Лажа полнейшая!
[Профиль]  [ЛС] 

lelilo

Штурман

Пост 08-Мар-2013 20:42 (спустя 20 дней)

[Q] 

смотрите Badcomedyan, Женя там точно описывает фильм
[Профиль]  [ЛС] 

Tfk

Лоцман

Пост 09-Мар-2013 00:36 (спустя 3 часа)

[Q] 

оно вообще того стоит..?
[Профиль]  [ЛС] 

youfate

Корсар

Пост 09-Мар-2013 20:38 (спустя 20 часов)

[Q] 

Стоит посмотреть
[Профиль]  [ЛС] 
Показать сообщения:    
Ответить на тему

Текущее время: Сегодня 18:42

Часовой пояс: GMT + 4



Вы не можете начинать темы
Вы не можете отвечать на сообщения
Вы не можете редактировать свои сообщения
Вы не можете удалять свои сообщения
Вы не можете голосовать в опросах
Вы не можете прикреплять файлы к сообщениям
Вы не можете скачивать файлы

▼ Вниз