ML
     
  Уважаемый Гость!
Вы можете поддержать проект и зарегистрироваться у наших партнеров - онлайн-стратегия MyLands. При регистрации в игре Вы получите код, который сможете активировать после регистрации на pirat.ca и получить 1000 дублонов.

Ваш код:
2fd4e750dd89cae3a36ea360f2b345ccfeb562d3
 
     

Гость (Игорь Копылов) [2013 г., боевик, криминал, SATRip]

Ответить на тему
 
Автор
Сообщение

Пост 17-Фев-2013 18:51

[Q] 

AGKRus36

-Гость-- -Производство: Россия / Трикс Медиа
Режиссер: Игорь Копылов
Жанр: боевик, криминал
Год выпуска: 2013 г.
Продолжительность: 01:30:08-В ролях: Александр Аравушкин, Александра Мареева, Илья Носков, Роман Агеев, Станислав Казаку, Наталья Высочанская, Олег Малышев-Описание: Сбежавшему из следственного изолятора рецидивисту Кольцову судьба неожиданно подбрасывает шанс. Случайный водитель, подвозивший Кольцова до вокзала, гибнет в перестрелке с полицией, спровоцированной опасным попутчиком. Перед этим водитель рассказывает ему о своей дочери Вере, которую он не видел с рождения и собирался навестить после двадцатипятилетней разлуки и смерти ее матери. Чтобы спрятаться от погони, уголовник приходит в дом Веры под видом ее отца. В руках Кольцова документы на имя Яковенко Константина Ивановича и его сумка. Гостю нужно продержаться в богатом доме Веры и ее супруга Сергея Громова всего день. И за этот день не выдать себя, не проколоться, не совершить ошибки. Но проведя с новыми родственниками день, Кольцов оказывается вовлеченным в проблемы этой семьи-Сэмпл
Качество видео: SATRip
Контейнер: AVI
Видео кодек: XviD
Аудио кодек: MP3
Видео: 704x384 (1.85:1), 25 fps, DivX Codec 6.8.5/6.9.1 ~2014 kbps avg, 0.30 bit/pixel
Аудио: 48 kHz, MPEG Layer 3, 2 ch, ~128.00 kbps avg
Cубтитры: отсутствуют
D:\Фильмы\Гость\Gost.2013.SATRip.avi
General
Complete name : D:\Фильмы\Гость\Gost.2013.SATRip.avi
Format : AVI
Format/Info : Audio Video Interleave
File size : 1.35 GiB
Duration : 1h 30mn
Overall bit rate : 2 152 Kbps
Writing application : VirtualDubMod 1.5.10.2 (build 2540/release)
Writing library : VirtualDub build 29808/release
Video #0
ID : 0
Format : MPEG-4 Visual
Format settings, BVOP : 1
Format settings, QPel : No
Format settings, GMC : No warppoints
Format settings, Matrix : Default (H.263)
Muxing mode : Packed bitstream
Codec ID : DX50
Codec ID/Hint : DivX 5
Duration : 1h 30mn
Bit rate : 2 014 Kbps
Width : 704 pixels
Height : 384 pixels
Display aspect ratio : 1.85:1
Frame rate : 25.000 fps
Color space : YUV
Chroma subsampling : 4:2:0
Bit depth : 8 bits
Scan type : Progressive
Compression mode : Lossy
Bits/(Pixel*Frame) : 0.298
Stream size : 1.27 GiB (94%)
Writing library : DivX 6.8.5 (UTC 2009-08-20)
Audio #1
ID : 1
Format : MPEG Audio
Format version : Version 1
Format profile : Layer 3
Mode : Joint stereo
Mode extension : MS Stereo
Codec ID : 55
Codec ID/Hint : MP3
Duration : 1h 30mn
Bit rate mode : Constant
Bit rate : 128 Kbps
Channel(s) : 2 channels
Sampling rate : 48.0 KHz
Compression mode : Lossy
Stream size : 82.5 MiB (6%)
Alignment : Aligned on interleaves
Interleave, duration : 40 ms (1.00 video frame)
Interleave, preload duration : 504 ms
Download / Скачать

Хотите скачать бесплатно? Зарегистрируйтесь на сайте (ссылка на регистрацию). Pirat.ca - самый быстрый торрент трекер в рунете!

Как скачивать  ·   Что такое торрент  ·   Рейтинг и ограничения

Пост 17-Фев-2013 21:08 (спустя 2 часа 17 минут)

Топик был перенесен из форума Наше кино (Трюм) в форум Новинки (HD|DVD|BD|TV|SAT|PDTV| - Rips)

ara1205
 

infiniti-r

Корсар

Пост 18-Фев-2013 07:29 (спустя 12 часов)

[Q] 

[Профиль]  [ЛС] 

Sergi4

Гроза морей

Пост 18-Фев-2013 11:33 (спустя 4 часа)

[Q] 

[Профиль]  [ЛС] 

DHARMEEDONT

Флибустьер

Пост 18-Фев-2013 21:43 (спустя 10 часов)

[Q] 

[Профиль]  [ЛС] 

allexxxv

Морской Волк

Пост 24-Фев-2013 10:45 (спустя 5 дней)

[Q] 

[Профиль]  [ЛС] 

Dectator

Штурман

Пост 19-Мар-2013 23:47 (спустя 23 дня)

[Q] 

[Профиль]  [ЛС] 

glot.gr

Корсар

Пост 20-Мар-2013 15:57 (спустя 16 часов)

[Q] 

anime37 anime8 anime34 anime52 anime50 anime49

_________________
[Профиль]  [ЛС] 

_Marks_

Флибустьер

Пост 20-Мар-2013 17:53 (спустя 1 час 56 минут)

[Q] 

глянем...
[Профиль]  [ЛС] 

in_nok

Лоцман

Пост 20-Мар-2013 18:46 (спустя 52 минуты)

[Q] 

[Профиль]  [ЛС] 

gr71silver

Корсар

Пост 20-Мар-2013 19:32 (спустя 46 минут)

[Q] 

Спасибо!
[Профиль]  [ЛС] 

Саша1959

Флибустьер

Пост 23-Мар-2013 00:39 (спустя 2 дня 5 часов)

[Q] 

[Профиль]  [ЛС] 

казаев

Морской Волк

Пост 27-Мар-2013 01:24 (спустя 4 дня)

[Q] 

[Профиль]  [ЛС] 

Nemetz

Корсар

Пост 11-Апр-2013 06:31 (спустя 15 дней)

[Q] 

трэш?
[Профиль]  [ЛС] 

shkan

Лоцман

Пост 30-Апр-2013 09:04 (спустя 19 дней)

[Q] 

Спасибо!
[Профиль]  [ЛС] 
Показать сообщения:    
Ответить на тему

Текущее время: Сегодня 14:10

Часовой пояс: GMT + 4



Вы не можете начинать темы
Вы не можете отвечать на сообщения
Вы не можете редактировать свои сообщения
Вы не можете удалять свои сообщения
Вы не можете голосовать в опросах
Вы не можете прикреплять файлы к сообщениям
Вы не можете скачивать файлы

▼ Вниз