ML
     
  Уважаемый Гость!
Вы можете поддержать проект и зарегистрироваться у наших партнеров - онлайн-стратегия MyLands. При регистрации в игре Вы получите код, который сможете активировать после регистрации на pirat.ca и получить 1000 дублонов.

Ваш код:
bc31d8aef74c92e19ad67e34a8fa63c3b9b812fb
 
     

Белый мавр, или Интимные истории о моих соседях (Дмитрий Фикс) [2012 г., драма, комедия, DVDRip] [Лицензия]

Страницы :  1, 2  След.

Ответить на тему
 
Автор
Сообщение

Пост 21-Фев-2013 11:29

[Q] 

AGKRus36

-Белый мавр, или Интимные истории о моих соседях -«Им есть что скрывать»- Производство: Россия / Мотор Фильм
Режиссер: Дмитрий Фикс
Жанр: драма, комедия
Год выпуска: 2012 г.
Продолжительность: 01:39:19-Российская премьера: 20 сентября 2012, «Мотор Интертейнтмент»
Дата выхода DVD: 17 января 2013, «Монолит»-В ролях: Вячеслав Разбегаев, Галина Петрова, Андрей Соколов, Сергей Астахов, Александр Галибин, Екатерина Стриженова, Эвклид Кюрдзидис, Жанна Эппле, Игорь Верник, Олеся Железняк, Анна Якунина, Евгения Морозова, Полина Райкина-Описание: Это ироничная, местами откровенно смешная и в тоже время грустная история о буднях так называемого «верхнего среднего класса» — воспетой в Америке Вуди Алленом, но пока еще весьма малочисленной в нашей стране прослойке состоятельных граждан. Помимо завидного достатка, всех этих погрязших в экзистенциальных сомнениях и банальных адюльтерах бизнесменов, кинозвезд, модных режиссеров, хозяев стоматологических клиник и их прекрасных жен объединяет еще и звонкое пионерское прошлое, преодолеть которое подчас оказывается гораздо сложнее, чем отгрохать особняк на Новой Риге…-Сэмпл КиноПоиск
Качество видео: DVDRip
Контейнер: AVI
Видео кодек: XviD
Аудио кодек: AC3
Видео: 720x384 (1.88:1), 25 fps, XviD build 50 ~1577 kbps avg, 0.23 bit/pixel
Аудио: 48 kHz, AC3 Dolby Digital, 3/2 (L,C,R,l,r) + LFE ch, ~384 kbps [Лицензия]
Cубтитры: отсутствуют
D:\Фильмы\Белый мавр, или Интимные истории о моих соседях\Belyj.mavr.ili.Intimnye.istorii.o.moih.sosedjah.2012.O.DVDRip.avi
General
Complete name : D:\Фильмы\Белый мавр, или Интимные истории о моих соседях\Belyj.mavr.ili.Intimnye.istorii.o.moih.sosedjah.2012.O.DVDRip.avi
Format : AVI
Format/Info : Audio Video Interleave
File size : 1.37 GiB
Duration : 1h 39mn
Overall bit rate : 1 970 Kbps
Genre : Comedy / Drama
Writing application : VirtualDubMod 1.5.10.3 | www.virtualdub-fr.org || (build 2550/release)
Original source form/Name : Movie
Video #0
ID : 0
Format : MPEG-4 Visual
Format profile : Advanced [email protected]
Format settings, BVOP : 1
Format settings, QPel : No
Format settings, GMC : No warppoints
Format settings, Matrix : Custom
Codec ID : XVID
Codec ID/Hint : XviD
Duration : 1h 39mn
Bit rate : 1 577 Kbps
Width : 720 pixels
Height : 384 pixels
Display aspect ratio : 1.85:1
Frame rate : 25.000 fps
Color space : YUV
Chroma subsampling : 4:2:0
Bit depth : 8 bits
Scan type : Progressive
Compression mode : Lossy
Bits/(Pixel*Frame) : 0.228
Stream size : 1.09 GiB (80%)
Writing library : XviD 1.2.1 (UTC 2008-12-04)
Audio #1
ID : 1
Format : AC-3
Format/Info : Audio Coding 3
Mode extension : CM (complete main)
Format settings, Endianness : Big
Codec ID : 2000
Duration : 1h 39mn
Bit rate mode : Constant
Bit rate : 384 Kbps
Channel(s) : 6 channels
Channel positions : Front: L C R, Side: L R, LFE
Sampling rate : 48.0 KHz
Bit depth : 16 bits
Compression mode : Lossy
Stream size : 273 MiB (19%)
Alignment : Split accross interleaves
Interleave, duration : 40 ms (1.00 video frame)
Interleave, preload duration : 500 ms
Download / Скачать

Хотите скачать бесплатно? Зарегистрируйтесь на сайте (ссылка на регистрацию). Pirat.ca - самый быстрый торрент трекер в рунете!

Как скачивать  ·   Что такое торрент  ·   Рейтинг и ограничения

Пост 21-Фев-2013 13:50 (спустя 2 часа 21 минута)

Топик был перенесен из форума Наше кино (Трюм) в форум Новинки (HD|DVD|BD|TV|SAT|PDTV| - Rips)

erchine
 

infiniti-r

Корсар

Пост 21-Фев-2013 14:15 (спустя 2 часа 46 минут)

[Q] 

[Профиль]  [ЛС] 

TheSwan

Корсар

Пост 21-Фев-2013 15:44 (спустя 1 час 28 минут)

[Q] 

[Профиль]  [ЛС] 

sergein

Корсар

Пост 21-Фев-2013 20:35 (спустя 4 часа)

[Q] 

[Профиль]  [ЛС] 

sba

Морской Волк

Пост 21-Фев-2013 20:36 (спустя 45 секунд)

[Q] 

[Профиль]  [ЛС] 

дима-с

Морской Волк

71

Пост 21-Фев-2013 20:46 (спустя 10 минут)

[Q] 

как оно?

_________________
ночью сплю!
[Профиль]  [ЛС] 

Димарик82

Корсар

725

Пост 21-Фев-2013 22:45 (спустя 1 час 59 минут)

[Q] 

[Профиль]  [ЛС] 

Serzh18

Корсар

Пост 21-Фев-2013 22:57 (спустя 11 минут)

[Q] 

[Профиль]  [ЛС] 

EvilPuzatik

Корсар

Пост 21-Фев-2013 23:27 (спустя 29 минут)

[Q] 

Наконец то тему голых жоп раскрыли))

_________________
[Профиль]  [ЛС] 

grey7

Корсар

Пост 22-Фев-2013 06:39 (спустя 7 часов)

[Q] 

Глянем, а где Куценко?

_________________
Думаю
[Профиль]  [ЛС] 

FreecsteR

Шкипер

Пост 22-Фев-2013 18:28 (спустя 11 часов)

[Q] 

[Профиль]  [ЛС] 

citrus

Морской Волк

Пост 14-Мар-2013 05:28 (спустя 19 дней)

[Q] 

[Профиль]  [ЛС] 

rva111

Штурман

Пост 14-Мар-2013 20:27 (спустя 14 часов)

[Q] 

[Профиль]  [ЛС] 

in_nok

Лоцман

Пост 14-Мар-2013 21:03 (спустя 35 минут)

[Q] 

[Профиль]  [ЛС] 

anton78

Морской Волк

Пост 14-Мар-2013 21:08 (спустя 5 минут)

[Q] 

заценим. этот секс)))
[Профиль]  [ЛС] 

eevgenu45

Морской Волк

Пост 14-Мар-2013 21:10 (спустя 2 минуты)

[Q] 

aa
[Профиль]  [ЛС] 

Saracin

Штурман

Пост 15-Мар-2013 20:59 (спустя 23 часа)

[Q] 

Да, видимо у людей буквы на клаве платные...
Одни штампы

_________________

Бог один, провайдеры разные!
[Профиль]  [ЛС] 

Miha

Штурман

Пост 15-Мар-2013 23:19 (спустя 2 часа 20 минут)

[Q] 

Да, видимо у людей буквы на клаве платные...
Одни штампы bj
Разное читал, но такое первый раз вижу, красавец!
[Профиль]  [ЛС] 

Nemetz

Корсар

Пост 16-Мар-2013 02:44 (спустя 3 часа)

[Q] 

Так как фильм то? Хоть один бы отписал..
[Профиль]  [ЛС] 

Miha

Штурман

Пост 16-Мар-2013 10:21 (спустя 7 часов)

[Q] 

Лично мне не понравился.
[Профиль]  [ЛС] 

serge_023

Шкипер

Пост 20-Мар-2013 13:58 (спустя 4 дня)

[Q] 

[Профиль]  [ЛС] 

DmMur

Шкипер

Пост 20-Мар-2013 23:41 (спустя 9 часов)

[Q] 

[Профиль]  [ЛС] 

rels-R50

Лоцман

Пост 22-Мар-2013 21:02 (спустя 1 день 21 час)

[Q] 

Никто не пишет кроме МИХИ как фильм. Только скопированные спасибо ...
[Профиль]  [ЛС] 

serafim7

Корсар

99

Пост 22-Мар-2013 23:39 (спустя 2 часа 36 минут)

[Q] 

[Профиль]  [ЛС] 

bai2222

Лоцман

Пост 30-Мар-2013 15:08 (спустя 7 дней)

[Q] 

Ниче так, что-то в нем есть.
[Профиль]  [ЛС] 

VanoCHIN

Морской Волк

Пост 30-Мар-2013 19:50 (спустя 4 часа)

[Q] 

339583
Да, видимо у людей буквы на клаве платные...
Одни штампы bj
Разное читал, но такое первый раз вижу, красавец!
bj +100500. отзывов 0.
[Профиль]  [ЛС] 

вячеслав63

Шкипер

Пост 02-Апр-2013 01:20 (спустя 2 дня 5 часов)

[Q] 

aa
[Профиль]  [ЛС] 

femaxx

Корсар

Пост 02-Апр-2013 14:43 (спустя 13 часов)

[Q] 

[Профиль]  [ЛС] 

tema5.88

Морской Волк

2

Пост 02-Апр-2013 15:07 (спустя 24 минуты)

[Q] 

А попу Верника покажут? Актер от Бога!!!
[Профиль]  [ЛС] 
Показать сообщения:    
Ответить на тему

Текущее время: Сегодня 11:57

Часовой пояс: GMT + 4



Вы не можете начинать темы
Вы не можете отвечать на сообщения
Вы не можете редактировать свои сообщения
Вы не можете удалять свои сообщения
Вы не можете голосовать в опросах
Вы не можете прикреплять файлы к сообщениям
Вы не можете скачивать файлы

▼ Вниз