ML
     
  Уважаемый Гость!
Вы можете поддержать проект и зарегистрироваться у наших партнеров - онлайн-стратегия MyLands. При регистрации в игре Вы получите код, который сможете активировать после регистрации на pirat.ca и получить 1000 дублонов.

Ваш код:
aec9a4a936117fb450ba69e519991a0465404b1d
 
     

Особенности национальной рыбалки (Александр Рогожкин) [1998 г., Комедия, DVDRip][internal release]

Ответить на тему
 
Автор
Сообщение

Пост 22-Фев-2013 19:39

[Q] 

megamastor

-Особенности национальной рыбалки-- Производство: Кинокомпания "СТВ"
Режиссер: Александр Рогожкин
Жанр: Комедия
Год выпуска: 1998 г.
Продолжительность: 01:34:45
Российская премьера: 1 ноября 1998
Дата выхода DVD: 24 февраля 2011
В ролях: Алексей Булдаков, Алексей Севастьянов, Андрей Краско, Василий Домрачев, Виктор Бычков, Виллэ Хаапасало, Семен Стругачев, Сергей Гусинский, Сергей Русскин и др.-Описание: Компания старых приятелей, достойно выдержавших испытание национальной охотой, вновь собирается вместе — на сей раз для того, чтобы культурно отдохнуть под видом рыбной ловли. В разгар веселья друзья узнают, что, сами того не ведая, пересекли государственную границу и отдыхают уже в Финляндии.
После поспешного возвращения выясняется, что по ту сторону Финского залива осталось очень много водки. Так что хочешь — не хочешь, а придется возвращаться-Сэмпл КиноПоиск
Качество видео: DVDRip
Контейнер: AVI
Видео кодек: XviD
Аудио кодек: AC3
Видео: 720х448, 1 738 Kbps, 25.000 fps 0.216 bit/pixel
Аудио: 448 Kbps, 6 channels, 48.0 KHz
Cубтитры: отсутствуют
Format : AVI
Format/Info : Audio Video Interleave
File size : 1.45 GiB
Duration : 1h 34mn
Overall bit rate : 2 196 Kbps
Writing application : VirtualDubMod 1.5.10.3 | www.virtualdub-fr.org || (build 2550/release)
Writing library : VirtualDubMod build 2550/release
Video
ID : 0
Format : MPEG-4 Visual
Format profile : Advanced [email protected]
Format settings, BVOP : 2
Format settings, QPel : No
Format settings, GMC : No warppoints
Format settings, Matrix : Default (H.263)
Codec ID : XVID
Codec ID/Hint : XviD
Duration : 1h 34mn
Bit rate : 1 738 Kbps
Width : 720 pixels
Height : 448 pixels
Display aspect ratio : 1.607
Frame rate : 25.000 fps
Color space : YUV
Chroma subsampling : 4:2:0
Bit depth : 8 bits
Scan type : Progressive
Compression mode : Lossy
Bits/(Pixel*Frame) : 0.216
Stream size : 1.15 GiB (79%)
Writing library : XviD 1.2.1 (UTC 2008-12-04)
Audio
ID : 1
Format : AC-3
Format/Info : Audio Coding 3
Mode extension : CM (complete main)
Format settings, Endianness : Big
Codec ID : 2000
Duration : 1h 34mn
Bit rate mode : Constant
Bit rate : 448 Kbps
Channel(s) : 6 channels
Channel positions : Front: L C R, Side: L R, LFE
Sampling rate : 48.0 KHz
Bit depth : 16 bits
Compression mode : Lossy
Stream size : 304 MiB (20%)
Alignment : Split accross interleaves
Interleave, duration : 40 ms (1.00 video frame)
Interleave, preload duration : 500 ms
Download / Скачать

Хотите скачать бесплатно? Зарегистрируйтесь на сайте (ссылка на регистрацию). Pirat.ca - самый быстрый торрент трекер в рунете!

Как скачивать  ·   Что такое торрент  ·   Рейтинг и ограничения



Последний раз редактировалось: megamastor (2013-02-23 09:40), всего редактировалось 3 раз(а)

Jigsaw

Пост 22-Фев-2013 20:41 (спустя 1 час 1 минута)

[Q] 

Фильм суперский! Будем теперь ждать только Особенности национальной Бани =) bm-
 

megamastor ®

2827

Пост 01-Мар-2013 18:17 (спустя 6 дней)

[Q] 

327726Фильм суперский! Будем теперь ждать только Особенности национальной Бани =) bm-
Особенности русской бани (Алексей Рудаков) [1999 г., Эротическая комедия, DVDRip][internal release]
[Профиль]  [ЛС] 

UncleFather

Легенда

Пост 16-Мар-2013 10:04 (спустя 14 дней)

[Q] 


_________________
Одни боялись Пью, другие - Билли Бонса, а меня... меня боялся сам Флинт
[Профиль]  [ЛС] 

oleg55555

Штурман

Пост 24-Мар-2013 11:28 (спустя 8 дней)

[Q] 

Смотрю и смеюсь каждый раз.
[Профиль]  [ЛС] 

Antoshqa3

Морской Волк

Пост 22-Май-2013 23:01 (спустя 1 месяц 29 дней)

[Q] 

[Профиль]  [ЛС] 

pp2141

Гроза морей

Пост 02-Июн-2013 06:42 (спустя 10 дней)

[Q] 

[Профиль]  [ЛС] 

СерКат

Корсар

Пост 29-Дек-2014 23:29 (спустя 1 год 6 месяцев)

[Q] 

хороший фильм Лови бочку
[Профиль]  [ЛС] 

zmaksimz

Корсар

Пост 01-Янв-2015 16:28 (спустя 2 дня 16 часов)

[Q] 

Как же новогодние выходные без этого фильмы ;-)
[Профиль]  [ЛС] 

alex denver71

Флибустьер

Пост 07-Янв-2015 20:22 (спустя 6 дней)

[Q] 

Автору респект!!! Полностью согласен за хороший фильм: бочонок рома Лови бочку
[Профиль]  [ЛС] 

Xonline

Шкипер

Пост 01-Мар-2015 11:05 (спустя 1 месяц 21 день)

[Q] 

Продолжение не хуже первого фильма.
Спасибо!!!
[Профиль]  [ЛС] 

KoLЯn

Штурман

Пост 08-Сен-2015 23:09 (спустя 6 месяцев 7 дней)

[Q] 

Лови бочку фильм суперский !!! респект
[Профиль]  [ЛС] 
Показать сообщения:    
Ответить на тему

Текущее время: Сегодня 02:25

Часовой пояс: GMT + 4



Вы не можете начинать темы
Вы не можете отвечать на сообщения
Вы не можете редактировать свои сообщения
Вы не можете удалять свои сообщения
Вы не можете голосовать в опросах
Вы не можете прикреплять файлы к сообщениям
Вы не можете скачивать файлы

▼ Вниз