ML
     
  Уважаемый Гость!
Вы можете поддержать проект и зарегистрироваться у наших партнеров - онлайн-стратегия MyLands. При регистрации в игре Вы получите код, который сможете активировать после регистрации на pirat.ca и получить 1000 дублонов.

Ваш код:
74c28610d77aaac24ba694c4128f3b9b46b04220
 
     

Особенности национальной охоты (Александр Рогожкин) [1995 г., Комедия, DVDRip][internal release]

Ответить на тему
 
Автор
Сообщение

Пост 23-Фев-2013 10:01

[Q] 

megamastor

-Особенности национальной охоты-- Производство: Ленфильм
Режиссер: Александр Рогожкин
Жанр: Комедия
Год выпуска: 1995 г.
Продолжительность: 01:33:22
Российская премьера: 8 сентября 1995
Дата выхода DVD: 1 апреля 2011
В ролях: Алексей Булдаков, Виктор Бычков, Сергей Гусинский, Семен Стругачев, Сергей Русскин, Сергей Куприянов, Виллэ Хаапасало.-Описание: Молодой финский специалист по охоте, «финик», уговаривает своего русского друга помочь ему поучаствовать в настоящей русской охоте, дабы познакомиться с нравами и привычками русских охотников.
До боли знакомые нам бесконечные застолья с последующими приключениями, насыщенными крепким запахом водки, непрестанно удивляют и поражают «финика», но все же, сопоставляя традиции исторического прошлого со своеобразием настоящего, финн не жалеет о потерянном времени…-Сэмпл КиноПоиск
Качество видео: DVDRip
Контейнер: AVI
Видео кодек: XviD
Аудио кодек: AC3
Видео: 720х432,1 844 Kbps, 25.000 fps
Аудио: 384 Kbps, 6 channels, 48.0 KHz
Cубтитры: отсутствуют
Format : AVI
Format/Info : Audio Video Interleave
File size : 1.45 GiB
Duration : 1h 33mn
Overall bit rate : 2 238 Kbps
Writing application : VirtualDubMod 1.5.10.3 | www.virtualdub-fr.org || (build 2550/release)
Writing library : VirtualDubMod build 2550/release
Video
ID : 0
Format : MPEG-4 Visual
Format profile : Advanced [email protected]
Format settings, BVOP : 2
Format settings, QPel : No
Format settings, GMC : No warppoints
Format settings, Matrix : Default (H.263)
Codec ID : XVID
Codec ID/Hint : XviD
Duration : 1h 33mn
Bit rate : 1 844 Kbps
Width : 720 pixels
Height : 432 pixels
Display aspect ratio : 1.667
Frame rate : 25.000 fps
Color space : YUV
Chroma subsampling : 4:2:0
Bit depth : 8 bits
Scan type : Progressive
Compression mode : Lossy
Bits/(Pixel*Frame) : 0.237
Stream size : 1.20 GiB (82%)
Writing library : XviD 1.2.1 (UTC 2008-12-04)
Audio
ID : 1
Format : AC-3
Format/Info : Audio Coding 3
Mode extension : CM (complete main)
Format settings, Endianness : Big
Codec ID : 2000
Duration : 1h 33mn
Bit rate mode : Constant
Bit rate : 384 Kbps
Channel(s) : 6 channels
Channel positions : Front: L C R, Side: L R, LFE
Sampling rate : 48.0 KHz
Bit depth : 16 bits
Compression mode : Lossy
Stream size : 256 MiB (17%)
Alignment : Split accross interleaves
Interleave, duration : 40 ms (1.00 video frame)
Interleave, preload duration : 500 ms
Download / Скачать

Хотите скачать бесплатно? Зарегистрируйтесь на сайте (ссылка на регистрацию). Pirat.ca - самый быстрый торрент трекер в рунете!

Как скачивать  ·   Что такое торрент  ·   Рейтинг и ограничения



Последний раз редактировалось: megamastor (2013-02-23 12:56), всего редактировалось 1 раз

Пост 23-Фев-2013 13:44 (спустя 3 часа)

Топик был перенесен из форума Наше кино (Трюм) в форум Российские фильмы

ara1205
 

megamastor ®

2827

Пост 23-Фев-2013 19:08 (спустя 9 часов)

[Q] 

Топик был перенесен из форума Наше кино (Трюм) в форум Российские фильмы
Ну и спасибо. С праздничком
[Профиль]  [ЛС] 

ara1205

69738

Пост 24-Фев-2013 10:28 (спустя 15 часов)

[Q] 

Ну и спасибо. С праздничком
Вам спасибо. Получайте серебро!
[Профиль]  [ЛС] 

hohol541

Корсар

Пост 08-Мар-2013 15:39 (спустя 12 дней)

[Q] 

Класный фильм.
[Профиль]  [ЛС] 

polyk

Флибустьер

Пост 10-Мар-2013 14:38 (спустя 1 день 22 часа)

[Q] 

классика!! спасибо!!
[Профиль]  [ЛС] 

UncleFather

Легенда

Пост 16-Мар-2013 09:17 (спустя 5 дней)

[Q] 

Большое спасибо

_________________
Одни боялись Пью, другие - Билли Бонса, а меня... меня боялся сам Флинт
[Профиль]  [ЛС] 

Antoshqa3

Морской Волк

Пост 22-Май-2013 22:55 (спустя 2 месяца 6 дней)

[Q] 

[Профиль]  [ЛС] 

pp2141

Гроза морей

Пост 02-Июн-2013 06:41 (спустя 10 дней)

[Q] 

Спасибо за хорошийфильм
[Профиль]  [ЛС] 

Lelya

Пост 28-Авг-2013 21:09 (спустя 2 месяца 26 дней)

[Q] 

Спасибо Вам большое!)
[Профиль]  [ЛС] 

СерКат

Корсар

Пост 29-Дек-2014 23:27 (спустя 1 год 4 месяца)

[Q] 

Спасибо Лови бочку
[Профиль]  [ЛС] 

ouum

Шкипер

Пост 07-Янв-2015 04:41 (спустя 8 дней)

[Q] 

Спасибо, прикольный фильм!
[Профиль]  [ЛС] 

alex denver71

Флибустьер

Пост 07-Янв-2015 20:16 (спустя 15 часов)

[Q] 

Автору респект!!! Фильм классика!!! Супер!
[Профиль]  [ЛС] 

straHH1k

Штурман

Пост 08-Янв-2015 17:28 (спустя 21 час)

[Q] 

Качают ВСЕ!!! один из самых-самых!
[Профиль]  [ЛС] 

Xonline

Шкипер

Пост 01-Мар-2015 10:57 (спустя 1 месяц 20 дней)

[Q] 

Классика. Смотрел его вскоре после выхода, и до сих пор когда попадётся на ТВ, смотрю.
Супер!
[Профиль]  [ЛС] 
Показать сообщения:    
Ответить на тему

Текущее время: Сегодня 09:57

Часовой пояс: GMT + 4



Вы не можете начинать темы
Вы не можете отвечать на сообщения
Вы не можете редактировать свои сообщения
Вы не можете удалять свои сообщения
Вы не можете голосовать в опросах
Вы не можете прикреплять файлы к сообщениям
Вы не можете скачивать файлы

▼ Вниз